  0
SECTION
  2
HEADER
  9
$ACADVER
  1
AC1015
  9
$ACADMAINTVER
 70
     6
  9
$DWGCODEPAGE
  3
ANSI_1252
  9
$INSBASE
 10
0.0
 20
0.0
 30
0.0
  9
$EXTMIN
 10
-210.0000000000001
 20
0.0
 30
0.0
  9
$EXTMAX
 10
0.0
 20
297.0000000000001
 30
0.0
  9
$LIMMIN
 10
0.0
 20
0.0
  9
$LIMMAX
 10
12.0
 20
9.0
  9
$ORTHOMODE
 70
     0
  9
$REGENMODE
 70
     1
  9
$FILLMODE
 70
     1
  9
$QTEXTMODE
 70
     0
  9
$MIRRTEXT
 70
     1
  9
$LTSCALE
 40
1.0
  9
$ATTMODE
 70
     1
  9
$TEXTSIZE
 40
0.2
  9
$TRACEWID
 40
0.05
  9
$TEXTSTYLE
  7
Standard
  9
$CLAYER
  8
0
  9
$CELTYPE
  6
ByLayer
  9
$CECOLOR
 62
   256
  9
$CELTSCALE
 40
1.0
  9
$DISPSILH
 70
     0
  9
$DIMSCALE
 40
1.0
  9
$DIMASZ
 40
0.18
  9
$DIMEXO
 40
0.0625
  9
$DIMDLI
 40
0.38
  9
$DIMRND
 40
0.0
  9
$DIMDLE
 40
0.0
  9
$DIMEXE
 40
0.18
  9
$DIMTP
 40
0.0
  9
$DIMTM
 40
0.0
  9
$DIMTXT
 40
0.18
  9
$DIMCEN
 40
0.09
  9
$DIMTSZ
 40
0.0
  9
$DIMTOL
 70
     0
  9
$DIMLIM
 70
     0
  9
$DIMTIH
 70
     1
  9
$DIMTOH
 70
     1
  9
$DIMSE1
 70
     0
  9
$DIMSE2
 70
     0
  9
$DIMTAD
 70
     0
  9
$DIMZIN
 70
     0
  9
$DIMBLK
  1

  9
$DIMASO
 70
     1
  9
$DIMSHO
 70
     1
  9
$DIMPOST
  1

  9
$DIMAPOST
  1

  9
$DIMALT
 70
     0
  9
$DIMALTD
 70
     2
  9
$DIMALTF
 40
25.4
  9
$DIMLFAC
 40
1.0
  9
$DIMTOFL
 70
     0
  9
$DIMTVP
 40
0.0
  9
$DIMTIX
 70
     0
  9
$DIMSOXD
 70
     0
  9
$DIMSAH
 70
     0
  9
$DIMBLK1
  1

  9
$DIMBLK2
  1

  9
$DIMSTYLE
  2
Standard
  9
$DIMCLRD
 70
     0
  9
$DIMCLRE
 70
     0
  9
$DIMCLRT
 70
     0
  9
$DIMTFAC
 40
1.0
  9
$DIMGAP
 40
0.09
  9
$DIMJUST
 70
     0
  9
$DIMSD1
 70
     0
  9
$DIMSD2
 70
     0
  9
$DIMTOLJ
 70
     1
  9
$DIMTZIN
 70
     0
  9
$DIMALTZ
 70
     0
  9
$DIMALTTZ
 70
     0
  9
$DIMUPT
 70
     0
  9
$DIMDEC
 70
     4
  9
$DIMTDEC
 70
     4
  9
$DIMALTU
 70
     2
  9
$DIMALTTD
 70
     2
  9
$DIMTXSTY
  7
Standard
  9
$DIMAUNIT
 70
     0
  9
$DIMADEC
 70
     0
  9
$DIMALTRND
 40
0.0
  9
$DIMAZIN
 70
     0
  9
$DIMDSEP
 70
    46
  9
$DIMATFIT
 70
     3
  9
$DIMFRAC
 70
     0
  9
$DIMLDRBLK
  1

  9
$DIMLUNIT
 70
     2
  9
$DIMLWD
 70
    -2
  9
$DIMLWE
 70
    -2
  9
$DIMTMOVE
 70
     0
  9
$LUNITS
 70
     2
  9
$LUPREC
 70
     4
  9
$SKETCHINC
 40
0.1
  9
$FILLETRAD
 40
0.5
  9
$AUNITS
 70
     0
  9
$AUPREC
 70
     0
  9
$MENU
  1
.
  9
$ELEVATION
 40
0.0
  9
$PELEVATION
 40
0.0
  9
$THICKNESS
 40
0.0
  9
$LIMCHECK
 70
     0
  9
$CHAMFERA
 40
0.5
  9
$CHAMFERB
 40
0.5
  9
$CHAMFERC
 40
1.0
  9
$CHAMFERD
 40
0.0
  9
$SKPOLY
 70
     0
  9
$TDCREATE
 40
2456997.490989039
  9
$TDUCREATE
 40
2456997.449322373
  9
$TDUPDATE
 40
2456997.490989213
  9
$TDUUPDATE
 40
2456997.449322546
  9
$TDINDWG
 40
0.0000000116
  9
$TDUSRTIMER
 40
0.0000000116
  9
$USRTIMER
 70
     1
  9
$ANGBASE
 50
0.0
  9
$ANGDIR
 70
     0
  9
$PDMODE
 70
     0
  9
$PDSIZE
 40
0.0
  9
$PLINEWID
 40
0.0
  9
$SPLFRAME
 70
     0
  9
$SPLINETYPE
 70
     6
  9
$SPLINESEGS
 70
     8
  9
$HANDSEED
  5
300
  9
$SURFTAB1
 70
     6
  9
$SURFTAB2
 70
     6
  9
$SURFTYPE
 70
     6
  9
$SURFU
 70
     6
  9
$SURFV
 70
     6
  9
$UCSBASE
  2

  9
$UCSNAME
  2

  9
$UCSORG
 10
0.0
 20
0.0
 30
0.0
  9
$UCSXDIR
 10
1.0
 20
0.0
 30
0.0
  9
$UCSYDIR
 10
0.0
 20
1.0
 30
0.0
  9
$UCSORTHOREF
  2

  9
$UCSORTHOVIEW
 70
     0
  9
$UCSORGTOP
 10
0.0
 20
0.0
 30
0.0
  9
$UCSORGBOTTOM
 10
0.0
 20
0.0
 30
0.0
  9
$UCSORGLEFT
 10
0.0
 20
0.0
 30
0.0
  9
$UCSORGRIGHT
 10
0.0
 20
0.0
 30
0.0
  9
$UCSORGFRONT
 10
0.0
 20
0.0
 30
0.0
  9
$UCSORGBACK
 10
0.0
 20
0.0
 30
0.0
  9
$PUCSBASE
  2

  9
$PUCSNAME
  2

  9
$PUCSORG
 10
0.0
 20
0.0
 30
0.0
  9
$PUCSXDIR
 10
1.0
 20
0.0
 30
0.0
  9
$PUCSYDIR
 10
0.0
 20
1.0
 30
0.0
  9
$PUCSORTHOREF
  2

  9
$PUCSORTHOVIEW
 70
     0
  9
$PUCSORGTOP
 10
0.0
 20
0.0
 30
0.0
  9
$PUCSORGBOTTOM
 10
0.0
 20
0.0
 30
0.0
  9
$PUCSORGLEFT
 10
0.0
 20
0.0
 30
0.0
  9
$PUCSORGRIGHT
 10
0.0
 20
0.0
 30
0.0
  9
$PUCSORGFRONT
 10
0.0
 20
0.0
 30
0.0
  9
$PUCSORGBACK
 10
0.0
 20
0.0
 30
0.0
  9
$USERI1
 70
     0
  9
$USERI2
 70
     0
  9
$USERI3
 70
     0
  9
$USERI4
 70
     0
  9
$USERI5
 70
     0
  9
$USERR1
 40
18.1
  9
$USERR2
 40
0.0
  9
$USERR3
 40
0.0
  9
$USERR4
 40
0.0
  9
$USERR5
 40
0.0
  9
$WORLDVIEW
 70
     1
  9
$SHADEDGE
 70
     3
  9
$SHADEDIF
 70
    70
  9
$TILEMODE
 70
     1
  9
$MAXACTVP
 70
    64
  9
$PINSBASE
 10
0.0
 20
0.0
 30
0.0
  9
$PLIMCHECK
 70
     0
  9
$PEXTMIN
 10
1.00000000000000E+20
 20
1.00000000000000E+20
 30
1.00000000000000E+20
  9
$PEXTMAX
 10
-1.00000000000000E+20
 20
-1.00000000000000E+20
 30
-1.00000000000000E+20
  9
$PLIMMIN
 10
0.0
 20
0.0
  9
$PLIMMAX
 10
12.0
 20
9.0
  9
$UNITMODE
 70
     0
  9
$VISRETAIN
 70
     1
  9
$PLINEGEN
 70
     0
  9
$PSLTSCALE
 70
     1
  9
$TREEDEPTH
 70
  3020
  9
$CMLSTYLE
  2
Standard
  9
$CMLJUST
 70
     0
  9
$CMLSCALE
 40
1.0
  9
$PROXYGRAPHICS
 70
     1
  9
$MEASUREMENT
 70
     1
  9
$CELWEIGHT
370
    -1
  9
$ENDCAPS
280
     0
  9
$JOINSTYLE
280
     0
  9
$LWDISPLAY
290
     0
  9
$INSUNITS
 70
     4
  9
$HYPERLINKBASE
  1

  9
$STYLESHEET
  1

  9
$XEDIT
290
     1
  9
$CEPSNTYPE
380
     0
  9
$PSTYLEMODE
290
     1
  9
$FINGERPRINTGUID
  2
{3A3E9948-8AA7-47BA-9A45-D349B702B148}
  9
$VERSIONGUID
  2
{FAEB1C32-E019-11D5-929B-00C0DF256EC4}
  9
$EXTNAMES
290
     1
  9
$PSVPSCALE
 40
0.0
  9
$OLESTARTUP
290
     0
  0
ENDSEC
  0
SECTION
  2
CLASSES
  0
CLASS
  1
ACDBDICTIONARYWDFLT
  2
AcDbDictionaryWithDefault
  3
ObjectDBX Classes
 90
        0
280
     0
281
     0
  0
CLASS
  1
VISUALSTYLE
  2
AcDbVisualStyle
  3
ObjectDBX Classes
 90
     4095
280
     0
281
     0
  0
CLASS
  1
MATERIAL
  2
AcDbMaterial
  3
ObjectDBX Classes
 90
     1153
280
     0
281
     0
  0
CLASS
  1
DICTIONARYVAR
  2
AcDbDictionaryVar
  3
ObjectDBX Classes
 90
        0
280
     0
281
     0
  0
CLASS
  1
ACDBPLACEHOLDER
  2
AcDbPlaceHolder
  3
ObjectDBX Classes
 90
        0
280
     0
281
     0
  0
CLASS
  1
LAYOUT
  2
AcDbLayout
  3
ObjectDBX Classes
 90
        0
280
     0
281
     0
  0
ENDSEC
  0
SECTION
  2
TABLES
  0
TABLE
  2
VPORT
  5
8
330
0
100
AcDbSymbolTable
 70
     1
  0
VPORT
  5
29
330
8
100
AcDbSymbolTableRecord
100
AcDbViewportTableRecord
  2
*Active
 70
     0
 10
0.0
 20
0.0
 11
1.0
 21
1.0
 12
-105.0000000000001
 22
148.5000000000001
 13
0.0
 23
0.0
 14
0.5
 24
0.5
 15
0.5
 25
0.5
 16
0.0
 26
0.0
 36
1.0
 17
0.0
 27
0.0
 37
0.0
 40
326.7000000000002
 41
1.60267857142857
 42
50.0
 43
0.0
 44
0.0
 50
0.0
 51
0.0
 71
     0
 72
   100
 73
     1
 74
     3
 75
     0
 76
     0
 77
     0
 78
     0
281
     0
 65
     1
110
0.0
120
0.0
130
0.0
111
1.0
121
0.0
131
0.0
112
0.0
122
1.0
132
0.0
 79
     0
146
0.0
  0
ENDTAB
  0
TABLE
  2
LTYPE
  5
5
330
0
100
AcDbSymbolTable
 70
     8
  0
LTYPE
  5
14
330
5
100
AcDbSymbolTableRecord
100
AcDbLinetypeTableRecord
  2
ByBlock
 70
     0
  3

 72
    65
 73
     0
 40
0.0
  0
LTYPE
  5
15
330
5
100
AcDbSymbolTableRecord
100
AcDbLinetypeTableRecord
  2
ByLayer
 70
     0
  3

 72
    65
 73
     0
 40
0.0
  0
LTYPE
  5
16
330
5
100
AcDbSymbolTableRecord
100
AcDbLinetypeTableRecord
  2
Continuous
 70
     0
  3
Solid line
 72
    65
 73
     0
 40
0.0
  0
LTYPE
  5
3F
330
5
100
AcDbSymbolTableRecord
100
AcDbLinetypeTableRecord
  2
DASHED
 70
     0
  3
Dashed
 72
    65
 73
     2
 40
15.0
 49
7.0
 74
     0
 49
-8.0
 74
     0
  0
LTYPE
  5
40
330
5
100
AcDbSymbolTableRecord
100
AcDbLinetypeTableRecord
  2
DOTTED
 70
     0
  3
Dotted
 72
    65
 73
     2
 40
1.0
 49
0.0
 74
     0
 49
-1.0
 74
     0
  0
LTYPE
  5
41
330
5
100
AcDbSymbolTableRecord
100
AcDbLinetypeTableRecord
  2
DOT_CENTER
 70
     0
  3
Dot_Center
 72
    65
 73
     4
 40
14.0
 49
12.0
 74
     0
 49
-1.0
 74
     0
 49
0.0
 74
     0
 49
-1.0
 74
     0
  0
LTYPE
  5
42
330
5
100
AcDbSymbolTableRecord
100
AcDbLinetypeTableRecord
  2
LONG_DASHED
 70
     0
  3
Long_Dashed
 72
    65
 73
     2
 40
15.0
 49
10.0
 74
     0
 49
-5.0
 74
     0
  0
LTYPE
  5
43
330
5
100
AcDbSymbolTableRecord
100
AcDbLinetypeTableRecord
  2
DASH_CENTER
 70
     0
  3
Dash_Center
 72
    65
 73
     4
 40
14.0
 49
11.0
 74
     0
 49
-1.0
 74
     0
 49
1.0
 74
     0
 49
-1.0
 74
     0
  0
LTYPE
  5
44
330
5
100
AcDbSymbolTableRecord
100
AcDbLinetypeTableRecord
  2
PHANTOM
 70
     0
  3
Phantom
 72
    65
 73
     6
 40
13.0
 49
10.0
 74
     0
 49
-1.0
 74
     0
 49
0.0
 74
     0
 49
-1.0
 74
     0
 49
0.0
 74
     0
 49
-1.0
 74
     0
  0
LTYPE
  5
45
330
5
100
AcDbSymbolTableRecord
100
AcDbLinetypeTableRecord
  2
CENTER_DASH_DASH
 70
     0
  3
Center_Dash_Dash
 72
    65
 73
     6
 40
14.0
 49
9.0
 74
     0
 49
-1.0
 74
     0
 49
1.0
 74
     0
 49
-1.0
 74
     0
 49
1.0
 74
     0
 49
-1.0
 74
     0
  0
ENDTAB
  0
TABLE
  2
LAYER
  5
2
330
0
100
AcDbSymbolTable
 70
     2
  0
LAYER
  5
10
330
2
100
AcDbSymbolTableRecord
100
AcDbLayerTableRecord
  2
0
 70
     0
 62
     7
  6
Continuous
370
    -3
390
F
  0
LAYER
  5
46
330
2
100
AcDbSymbolTableRecord
100
AcDbLayerTableRecord
  2
1
 70
     0
 62
     7
  6
Continuous
370
    -3
390
F
  0
ENDTAB
  0
TABLE
  2
STYLE
  5
3
330
0
100
AcDbSymbolTable
 70
     4
  0
STYLE
  5
11
330
3
100
AcDbSymbolTableRecord
100
AcDbTextStyleTableRecord
  2
Standard
 70
     0
 40
0.0
 41
1.0
 50
0.0
 71
     0
 42
0.2
  3
txt
  4

  0
STYLE
  5
2B0
330
3
100
AcDbSymbolTableRecord
100
AcDbTextStyleTableRecord
  2
CONVERTER_11
 70
     0
 40
0.0
 41
1.2
 50
0.0
 71
     0
 42
0.2
  3
ARIAL.TTF
  4

  0
STYLE
  5
2B6
330
3
100
AcDbSymbolTableRecord
100
AcDbTextStyleTableRecord
  2
CONVERTER_12
 70
     0
 40
0.0
 41
1.44
 50
0.0
 71
     0
 42
0.2
  3
ARIAL.TTF
  4

  0
STYLE
  5
2C0
330
3
100
AcDbSymbolTableRecord
100
AcDbTextStyleTableRecord
  2
CONVERTER_13
 70
     0
 40
0.0
 41
0.95
 50
0.0
 71
     0
 42
0.2
  3
simplex.shx
  4

  0
ENDTAB
  0
TABLE
  2
VIEW
  5
6
330
0
100
AcDbSymbolTable
 70
     0
  0
ENDTAB
  0
TABLE
  2
UCS
  5
7
330
0
100
AcDbSymbolTable
 70
     0
  0
ENDTAB
  0
TABLE
  2
APPID
  5
9
330
0
100
AcDbSymbolTable
 70
     1
  0
APPID
  5
12
330
9
100
AcDbSymbolTableRecord
100
AcDbRegAppTableRecord
  2
ACAD
 70
     0
  0
ENDTAB
  0
TABLE
  2
DIMSTYLE
  5
A
330
0
100
AcDbSymbolTable
 70
     3
100
AcDbDimStyleTable
  0
DIMSTYLE
105
27
330
A
100
AcDbSymbolTableRecord
100
AcDbDimStyleTableRecord
  2
Standard
 70
     0
178
     0
340
11
  0
DIMSTYLE
105
2C4
102
{ACAD_REACTORS
330
2C5
102
}
330
A
100
AcDbSymbolTableRecord
100
AcDbDimStyleTableRecord
  2
ME10_DIM_10
 70
     0
  3
ø<>
 41
3.0
 42
0.5
 44
1.0
 73
     0
 74
     0
 77
     1
 78
     8
140
3.0
147
2.0
172
     1
173
     1
174
     1
175
     1
176
     2
177
     2
271
     2
178
     4
271
     2
340
2C0
  0
DIMSTYLE
105
2CF
102
{ACAD_REACTORS
330
2D0
102
}
330
A
100
AcDbSymbolTableRecord
100
AcDbDimStyleTableRecord
  2
ME10_DIM_11
 70
     0
 41
3.0
 42
0.5
 44
1.0
 73
     0
 74
     0
 77
     1
 78
     8
140
3.0
147
2.0
172
     1
173
     1
174
     1
175
     1
176
     2
177
     2
271
     2
178
     4
271
     2
340
2C0
  0
ENDTAB
  0
TABLE
  2
BLOCK_RECORD
  5
1
330
0
100
AcDbSymbolTable
 70
     3
  0
BLOCK_RECORD
  5
1F
330
1
100
AcDbSymbolTableRecord
100
AcDbBlockTableRecord
  2
*Model_Space
340
22
  0
BLOCK_RECORD
  5
1B
330
1
100
AcDbSymbolTableRecord
100
AcDbBlockTableRecord
  2
*Paper_Space
340
1E
  0
BLOCK_RECORD
  5
23
330
1
100
AcDbSymbolTableRecord
100
AcDbBlockTableRecord
  2
*Paper_Space0
340
26
  0
BLOCK_RECORD
  5
2BA
330
1
100
AcDbSymbolTableRecord
100
AcDbBlockTableRecord
  2
*D1
340
0
  0
BLOCK_RECORD
  5
2C6
330
1
100
AcDbSymbolTableRecord
100
AcDbBlockTableRecord
  2
*D2
340
0
  0
ENDTAB
  0
ENDSEC
  0
SECTION
  2
BLOCKS
  0
BLOCK
  5
20
330
1F
100
AcDbEntity
  8
0
100
AcDbBlockBegin
  2
*Model_Space
 70
     0
 10
0.0
 20
0.0
 30
0.0
  3
*Model_Space
  1

  0
ENDBLK
  5
21
330
1F
100
AcDbEntity
  8
0
100
AcDbBlockEnd
  0
BLOCK
  5
1C
330
1B
100
AcDbEntity
 67
     1
  8
0
100
AcDbBlockBegin
  2
*Paper_Space
 70
     0
 10
0.0
 20
0.0
 30
0.0
  3
*Paper_Space
  1

  0
ENDBLK
  5
1D
330
1B
100
AcDbEntity
 67
     1
  8
0
100
AcDbBlockEnd
  0
BLOCK
  5
24
330
23
100
AcDbEntity
  8
0
100
AcDbBlockBegin
  2
*Paper_Space0
 70
     0
 10
0.0
 20
0.0
 30
0.0
  3
*Paper_Space0
  1

  0
ENDBLK
  5
25
330
23
100
AcDbEntity
  8
0
100
AcDbBlockEnd
  0
BLOCK
  5
2C2
330
2BA
100
AcDbEntity
  8
0
100
AcDbBlockBegin
  2
*D1
 70
     1
 10
0.0
 20
0.0
 30
0.0
  3
*D1
  1

  0
LINE
  5
2BB
330
2BA
100
AcDbEntity
  8
1
  6
Continuous
 62
     2
100
AcDbLine
 10
-139.2466813157328
 20
129.781241945274
 30
0.0
 11
-123.8466813157328
 21
129.781241945274
 31
0.0
  0
LINE
  5
2BC
330
2BA
100
AcDbEntity
  8
1
  6
Continuous
 62
     2
100
AcDbLine
 10
-123.8466813157328
 20
142.4500044408134
 30
0.0
 11
-123.8466813157328
 21
128.781241945274
 31
0.0
  0
LINE
  5
2BD
330
2BA
100
AcDbEntity
  8
1
  6
Continuous
 62
     2
100
AcDbLine
 10
-139.2466813157328
 20
142.4500044408134
 30
0.0
 11
-139.2466813157328
 21
128.781241945274
 31
0.0
  0
SOLID
  5
2BE
330
2BA
100
AcDbEntity
  8
1
 62
     2
100
AcDbTrace
 10
-136.2466813157328
 20
130.1761994380362
 30
0.0
 11
-136.2466813157328
 21
129.3862844525118
 31
0.0
 12
-139.2466813157328
 22
129.781241945274
 32
0.0
 13
-139.2466813157328
 23
129.781241945274
 33
0.0
  0
SOLID
  5
2BF
330
2BA
100
AcDbEntity
  8
1
 62
     2
100
AcDbTrace
 10
-126.8466813157328
 20
129.3862844525118
 30
0.0
 11
-126.8466813157328
 21
130.1761994380362
 31
0.0
 12
-123.8466813157328
 22
129.781241945274
 32
0.0
 13
-123.8466813157328
 23
129.781241945274
 33
0.0
  0
MTEXT
  5
2C1
330
2BA
100
AcDbEntity
  8
1
 62
     4
100
AcDbMText
 10
-136.0316813157256
 20
132.0812359820657
 30
0.0
 40
3.0
 41
0.0
 71
     7
 72
     1
  1
\C4;\U+00f8\C4;15,5
  7
CONVERTER_13
 11
0.9999999999970619
 21
2.424068405545306E-6
 31
0.0
 73
     1
 44
0.60024009603842
  0
ENDBLK
  5
2C3
330
2BA
100
AcDbEntity
  8
0
100
AcDbBlockEnd
  0
BLOCK
  5
2CD
330
2C6
100
AcDbEntity
  8
0
100
AcDbBlockBegin
  2
*D2
 70
     1
 10
0.0
 20
0.0
 30
0.0
  3
*D2
  1

  0
LINE
  5
2C7
330
2C6
100
AcDbEntity
  8
1
  6
Continuous
 62
     2
100
AcDbLine
 10
-35.7668575675928
 20
189.4500044408134
 30
0.0
 11
-35.7668575675928
 21
142.9500044408134
 31
0.0
  0
LINE
  5
2C8
330
2C6
100
AcDbEntity
  8
1
  6
Continuous
 62
     2
100
AcDbLine
 10
-52.6788919218148
 20
142.9500044408134
 30
0.0
 11
-34.7668575675928
 21
142.9500044408134
 31
0.0
  0
LINE
  5
2C9
330
2C6
100
AcDbEntity
  8
1
  6
Continuous
 62
     2
100
AcDbLine
 10
-52.18757603385168
 20
189.4500044408134
 30
0.0
 11
-34.7668575675928
 21
189.4500044408134
 31
0.0
  0
SOLID
  5
2CA
330
2C6
100
AcDbEntity
  8
1
 62
     2
100
AcDbTrace
 10
-35.37190007483061
 20
186.4500044408134
 30
0.0
 11
-36.16181506035499
 21
186.4500044408134
 31
0.0
 12
-35.7668575675928
 22
189.4500044408134
 32
0.0
 13
-35.7668575675928
 23
189.4500044408134
 33
0.0
  0
SOLID
  5
2CB
330
2C6
100
AcDbEntity
  8
1
 62
     2
100
AcDbTrace
 10
-36.16181506035499
 20
145.9500044408134
 30
0.0
 11
-35.37190007483061
 21
145.9500044408134
 31
0.0
 12
-35.7668575675928
 22
142.9500044408134
 32
0.0
 13
-35.7668575675928
 23
142.9500044408134
 33
0.0
  0
MTEXT
  5
2CC
330
2C6
100
AcDbEntity
  8
1
 62
     4
100
AcDbMText
 10
-38.0668575675928
 20
162.0750044408134
 30
0.0
 40
3.0
 41
0.0
 71
     7
 72
     1
  1
46,5
  7
CONVERTER_13
 11
0.0
 21
1.0
 31
0.0
 73
     1
 44
0.60024009603842
  0
ENDBLK
  5
2CE
330
2C6
100
AcDbEntity
  8
0
100
AcDbBlockEnd
  0
ENDSEC
  0
SECTION
  2
ENTITIES
  0
LINE
  5
47
330
1F
100
AcDbEntity
  8
0
  6
Continuous
 62
     7
100
AcDbLine
 10
-126.7764848992174
 20
91.67940100529522
 30
0.0
 11
-125.3850083636621
 21
91.03054484062281
 31
0.0
  0
LINE
  5
48
330
1F
100
AcDbEntity
  8
0
  6
Continuous
 62
     7
100
AcDbLine
 10
-119.7060491122742
 20
91.69253640823791
 30
0.0
 11
-120.727876492268
 21
89.50122052027481
 31
0.0
  0
LINE
  5
49
330
1F
100
AcDbEntity
  8
0
  6
Continuous
 62
     7
100
AcDbLine
 10
-119.7060491122742
 20
91.69253640823791
 30
0.0
 11
-126.0827386072733
 21
94.66603555343256
 31
0.0
  0
LINE
  5
4A
330
1F
100
AcDbEntity
  8
0
  6
Continuous
 62
     7
100
AcDbLine
 10
-125.7445818355875
 20
84.6685921673155
 30
0.0
 11
-124.3083829055145
 21
83.99888160758852
 31
0.0
  0
LINE
  5
4B
330
1F
100
AcDbEntity
  8
0
  6
Continuous
 62
     7
100
AcDbLine
 10
-127.1907571204329
 20
85.34295477767341
 30
0.0
 11
-125.7445818355875
 21
84.6685921673155
 31
0.0
  0
LINE
  5
4C
330
1F
100
AcDbEntity
  8
0
  6
Continuous
 62
     7
100
AcDbLine
 10
-124.3083829055145
 20
83.99888160758852
 30
0.0
 11
-123.2586385661614
 21
83.5093777830433
 31
0.0
  0
LINE
  5
4D
330
1F
100
AcDbEntity
  8
0
  6
Continuous
 62
     7
100
AcDbLine
 10
-123.7436217745161
 20
82.52181345631692
 30
0.0
 11
-124.0394545577345
 21
81.88739800539122
 31
0.0
  0
LINE
  5
4E
330
1F
100
AcDbEntity
  8
0
  6
Continuous
 62
     7
100
AcDbLine
 10
-124.3073437793159
 20
81.7916412171593
 30
0.0
 11
-128.8722929388218
 21
83.92031196932513
 31
0.0
  0
LINE
  5
4F
330
1F
100
AcDbEntity
  8
0
  6
Continuous
 62
     7
100
AcDbLine
 10
-123.2522354212367
 20
83.50639194752861
 30
0.0
 11
-123.7171155091514
 21
82.50945338178832
 31
0.0
  0
LINE
  5
50
330
1F
100
AcDbEntity
  8
0
  6
Continuous
 62
     7
100
AcDbLine
 10
-123.7171155091514
 20
82.50945338178832
 30
0.0
 11
-123.7436217745161
 21
82.52181345631692
 31
0.0
  0
LINE
  5
51
330
1F
100
AcDbEntity
  8
0
  6
Continuous
 62
     7
100
AcDbLine
 10
-123.2522354212367
 20
83.50639194752861
 30
0.0
 11
-123.2586385661614
 21
83.5093777830433
 31
0.0
  0
LINE
  5
52
330
1F
100
AcDbEntity
  8
0
  6
Continuous
 62
     7
100
AcDbLine
 10
-122.9975631342729
 20
90.5595927830538
 30
0.0
 11
-124.1304478680688
 21
91.0878656102297
 31
0.0
  0
LINE
  5
53
330
1F
100
AcDbEntity
  8
0
  6
Continuous
 62
     7
100
AcDbLine
 10
-121.8646784004772
 20
90.0313199558779
 30
0.0
 11
-122.9975631342729
 21
90.5595927830538
 31
0.0
  0
LINE
  5
54
330
1F
100
AcDbEntity
  8
0
  6
Continuous
 62
     7
100
AcDbLine
 10
-127.1907571204329
 20
85.34295477767341
 30
0.0
 11
-127.6293377813142
 21
85.54746829856111
 31
0.0
  0
LINE
  5
55
330
1F
100
AcDbEntity
  8
0
  6
Continuous
 62
     7
100
AcDbLine
 10
-125.7445818355875
 20
84.6685921673155
 30
0.0
 11
-124.3083829055145
 21
83.99888160758852
 31
0.0
  0
LINE
  5
56
330
1F
100
AcDbEntity
  8
0
  6
Continuous
 62
     7
100
AcDbLine
 10
-123.8857646437737
 20
84.9051893946251
 30
0.0
 11
-126.7681388586922
 21
86.24926256471011
 31
0.0
  0
LINE
  5
57
330
1F
100
AcDbEntity
  8
0
  6
Continuous
 62
     7
100
AcDbLine
 10
-127.1907571204329
 20
85.34295477767341
 30
0.0
 11
-125.7445818355875
 21
84.6685921673155
 31
0.0
  0
LINE
  5
58
330
1F
100
AcDbEntity
  8
0
  6
Continuous
 62
     7
100
AcDbLine
 10
-122.8360203044208
 20
84.41568557008
 30
0.0
 11
-123.8857646437737
 21
84.9051893946251
 31
0.0
  0
LINE
  5
59
330
1F
100
AcDbEntity
  8
0
  6
Continuous
 62
     7
100
AcDbLine
 10
-122.8360203044208
 20
84.41568557008
 30
0.0
 11
-123.2586385661614
 21
83.5093777830433
 31
0.0
  0
LINE
  5
5A
330
1F
100
AcDbEntity
  8
0
  6
Continuous
 62
     7
100
AcDbLine
 10
-124.3083829055145
 20
83.99888160758852
 30
0.0
 11
-123.2586385661614
 21
83.5093777830433
 31
0.0
  0
LINE
  5
5B
330
1F
100
AcDbEntity
  8
0
  6
Continuous
 62
     7
100
AcDbLine
 10
-126.7681388586922
 20
86.24926256471011
 30
0.0
 11
-127.1306619735069
 21
86.41830986940641
 31
0.0
  0
LINE
  5
5C
330
1F
100
AcDbEntity
  8
0
  6
Continuous
 62
     7
100
AcDbLine
 10
-127.1907571204329
 20
85.34295477767341
 30
0.0
 11
-127.6293377813142
 21
85.54746829856111
 31
0.0
  0
LINE
  5
5D
330
1F
100
AcDbEntity
  8
0
  6
Continuous
 62
     7
100
AcDbLine
 10
-139.2390316199794
 20
92.39554873901682
 30
0.0
 11
-138.0979623132796
 21
94.8425797640158
 31
0.0
  0
LINE
  5
5E
330
1F
100
AcDbEntity
  8
0
  6
Continuous
 62
     7
100
AcDbLine
 10
-126.1955266127857
 20
89.29238284617801
 30
0.0
 11
-125.1389809584339
 21
91.55815231376971
 31
0.0
  0
LINE
  5
5F
330
1F
100
AcDbEntity
  8
0
  6
Continuous
 62
     7
100
AcDbLine
 10
-121.8987491972656
 20
84.3096422507349
 30
0.0
 11
-119.701134236214
 21
89.02244274332551
 31
0.0
  0
LINE
  5
60
330
1F
100
AcDbEntity
  8
0
  6
Continuous
 62
     7
100
AcDbLine
 10
-123.8857646437737
 20
84.9051893946251
 30
0.0
 11
-126.7681388586922
 21
86.24926256471011
 31
0.0
  0
LINE
  5
61
330
1F
100
AcDbEntity
  8
0
  6
Continuous
 62
     7
100
AcDbLine
 10
-122.8360203044208
 20
84.41568557008
 30
0.0
 11
-123.8857646437737
 21
84.9051893946251
 31
0.0
  0
LINE
  5
62
330
1F
100
AcDbEntity
  8
0
  6
Continuous
 62
     7
100
AcDbLine
 10
-122.2974270118989
 20
84.16453539314611
 30
0.0
 11
-122.8360203044208
 21
84.41568557008
 31
0.0
  0
LINE
  5
63
330
1F
100
AcDbEntity
  8
0
  6
Continuous
 62
     7
100
AcDbLine
 10
-124.1304478680688
 20
91.0878656102297
 30
0.0
 11
-125.1389809584339
 21
91.55815231376971
 31
0.0
  0
LINE
  5
64
330
1F
100
AcDbEntity
  8
0
  6
Continuous
 62
     7
100
AcDbLine
 10
-119.701134236214
 20
89.02244274332551
 30
0.0
 11
-121.8646784004772
 21
90.0313199558779
 31
0.0
  0
LINE
  5
65
330
1F
100
AcDbEntity
  8
0
  6
Continuous
 62
     7
100
AcDbLine
 10
-122.9975631342729
 20
90.5595927830538
 30
0.0
 11
-124.1304478680688
 21
91.0878656102297
 31
0.0
  0
LINE
  5
66
330
1F
100
AcDbEntity
  8
0
  6
Continuous
 62
     7
100
AcDbLine
 10
-121.8646784004772
 20
90.0313199558779
 30
0.0
 11
-122.9975631342729
 21
90.5595927830538
 31
0.0
  0
LINE
  5
67
330
1F
100
AcDbEntity
  8
0
  6
Continuous
 62
     7
100
AcDbLine
 10
-138.0063554179467
 20
91.48972901029481
 30
0.0
 11
-139.0939247623907
 21
91.99687092438361
 31
0.0
  0
LINE
  5
68
330
1F
100
AcDbEntity
  8
0
  6
Continuous
 62
     7
100
AcDbLine
 10
-134.048441923122
 20
92.9542573942305
 30
0.0
 11
-138.0979623132796
 21
94.8425797640158
 31
0.0
  0
LINE
  5
69
330
1F
100
AcDbEntity
  8
0
  6
Continuous
 62
     7
100
AcDbLine
 10
-128.6297659541447
 20
90.4274872928359
 30
0.0
 11
-126.1955266127857
 21
89.29238284617801
 31
0.0
  0
LINE
  5
6A
330
1F
100
AcDbEntity
  8
0
  6
Continuous
 62
     7
100
AcDbLine
 10
-126.7681388586922
 20
86.24926256471011
 30
0.0
 11
-127.1306619735069
 21
86.41830986940641
 31
0.0
  0
LINE
  5
6B
330
1F
100
AcDbEntity
  8
0
  6
Continuous
 62
     7
100
AcDbLine
 10
-126.7966813157329
 20
91.14533532781371
 30
0.0
 11
-126.7466813157328
 21
91.14533532781371
 31
0.0
  0
LINE
  5
6C
330
1F
100
AcDbEntity
  8
0
  6
Continuous
 62
     7
100
AcDbLine
 10
-129.4966813157329
 20
91.14533532781371
 30
0.0
 11
-130.2466813157329
 21
91.14533532781371
 31
0.0
  0
LINE
  5
6D
330
1F
100
AcDbEntity
  8
0
  6
Continuous
 62
     7
100
AcDbLine
 10
-129.3966813157329
 20
91.14533532781371
 30
0.0
 11
-129.4966813157329
 21
91.14533532781371
 31
0.0
  0
LINE
  5
6E
330
1F
100
AcDbEntity
  8
0
  6
Continuous
 62
     7
100
AcDbLine
 10
-128.6966813157328
 20
91.14533532781371
 30
0.0
 11
-128.7966813157329
 21
91.14533532781371
 31
0.0
  0
LINE
  5
6F
330
1F
100
AcDbEntity
  8
0
  6
Continuous
 62
     7
100
AcDbLine
 10
-128.8966813157329
 20
91.14533532781371
 30
0.0
 11
-129.3966813157329
 21
91.14533532781371
 31
0.0
  0
LINE
  5
70
330
1F
100
AcDbEntity
  8
0
  6
Continuous
 62
     7
100
AcDbLine
 10
-128.8966813157329
 20
91.14533532781371
 30
0.0
 11
-128.7966813157329
 21
91.14533532781371
 31
0.0
  0
LINE
  5
71
330
1F
100
AcDbEntity
  8
0
  6
Continuous
 62
     7
100
AcDbLine
 10
-133.1047953094466
 20
91.14533532781371
 30
0.0
 11
-132.8466813157329
 21
91.14533532781371
 31
0.0
  0
LINE
  5
72
330
1F
100
AcDbEntity
  8
0
  6
Continuous
 62
     7
100
AcDbLine
 10
-126.7966813157329
 20
91.14533532781371
 30
0.0
 11
-128.6966813157328
 21
91.14533532781371
 31
0.0
  0
LINE
  5
73
330
1F
100
AcDbEntity
  8
0
  6
Continuous
 62
     7
100
AcDbLine
 10
-126.7966813157329
 20
91.14533532781371
 30
0.0
 11
-126.7466813157328
 21
91.14533532781371
 31
0.0
  0
LINE
  5
74
330
1F
100
AcDbEntity
  8
0
  6
Continuous
 62
     7
100
AcDbLine
 10
-129.4966813157329
 20
91.14533532781371
 30
0.0
 11
-130.2466813157329
 21
91.14533532781371
 31
0.0
  0
LINE
  5
75
330
1F
100
AcDbEntity
  8
0
  6
Continuous
 62
     7
100
AcDbLine
 10
-129.3966813157329
 20
91.14533532781371
 30
0.0
 11
-129.4966813157329
 21
91.14533532781371
 31
0.0
  0
LINE
  5
76
330
1F
100
AcDbEntity
  8
0
  6
Continuous
 62
     7
100
AcDbLine
 10
-128.6966813157328
 20
91.14533532781371
 30
0.0
 11
-128.7966813157329
 21
91.14533532781371
 31
0.0
  0
LINE
  5
77
330
1F
100
AcDbEntity
  8
0
  6
Continuous
 62
     7
100
AcDbLine
 10
-128.8966813157329
 20
91.14533532781371
 30
0.0
 11
-129.3966813157329
 21
91.14533532781371
 31
0.0
  0
LINE
  5
78
330
1F
100
AcDbEntity
  8
0
  6
Continuous
 62
     7
100
AcDbLine
 10
-128.8966813157329
 20
91.14533532781371
 30
0.0
 11
-128.7966813157329
 21
91.14533532781371
 31
0.0
  0
LINE
  5
79
330
1F
100
AcDbEntity
  8
0
  6
Continuous
 62
     7
100
AcDbLine
 10
-133.1047953094466
 20
91.14533532781371
 30
0.0
 11
-132.8466813157329
 21
91.14533532781371
 31
0.0
  0
LINE
  5
7A
330
1F
100
AcDbEntity
  8
0
  6
Continuous
 62
     7
100
AcDbLine
 10
-126.7966813157329
 20
91.14533532781371
 30
0.0
 11
-128.6966813157328
 21
91.14533532781371
 31
0.0
  0
LINE
  5
7B
330
1F
100
AcDbEntity
  8
0
  6
Continuous
 62
     7
100
AcDbLine
 10
-132.9466813157328
 20
98.7169930062881
 30
0.0
 11
-132.9466813157328
 21
101.7453353278137
 31
0.0
  0
LINE
  5
7C
330
1F
100
AcDbEntity
  8
0
  6
Continuous
 62
     7
100
AcDbLine
 10
-130.1466813157328
 20
101.7453353278137
 30
0.0
 11
-130.1466813157328
 21
98.71699300628805
 31
0.0
  0
LINE
  5
7D
330
1F
100
AcDbEntity
  8
0
  6
Continuous
 62
     7
100
AcDbLine
 10
-132.9466813157328
 20
101.7453353278137
 30
0.0
 11
-130.1466813157328
 21
101.7453353278137
 31
0.0
  0
LINE
  5
7E
330
1F
100
AcDbEntity
  8
0
  6
Continuous
 62
     7
100
AcDbLine
 10
-119.7060491122741
 20
246.4074724733889
 30
0.0
 11
-120.727876492268
 21
248.598788361352
 31
0.0
  0
LINE
  5
7F
330
1F
100
AcDbEntity
  8
0
  6
Continuous
 62
     7
100
AcDbLine
 10
-124.3382992942272
 20
244.2474187390543
 30
0.0
 11
-119.7060491122741
 21
246.4074724733889
 31
0.0
  0
LINE
  5
80
330
1F
100
AcDbEntity
  8
0
  6
Continuous
 62
     7
100
AcDbLine
 10
-125.9429088460288
 20
252.235557391561
 30
0.0
 11
-124.189078840051
 21
253.0533817544505
 31
0.0
  0
LINE
  5
81
330
1F
100
AcDbEntity
  8
0
  6
Continuous
 62
     7
100
AcDbLine
 10
-124.189078840051
 20
253.0533817544505
 30
0.0
 11
-123.8857646437737
 21
253.1948194870018
 31
0.0
  0
LINE
  5
82
330
1F
100
AcDbEntity
  8
0
  6
Continuous
 62
     7
100
AcDbLine
 10
-121.8987491972656
 20
253.7903666308919
 30
0.0
 11
-119.7011342362139
 21
249.0775661383013
 31
0.0
  0
LINE
  5
83
330
1F
100
AcDbEntity
  8
0
  6
Continuous
 62
     7
100
AcDbLine
 10
-123.8857646437737
 20
253.1948194870018
 30
0.0
 11
-122.8360203044208
 21
253.6843233115469
 31
0.0
  0
LINE
  5
84
330
1F
100
AcDbEntity
  8
0
  6
Continuous
 62
     7
100
AcDbLine
 10
-122.8360203044208
 20
253.6843233115469
 30
0.0
 11
-122.2974270118989
 21
253.9354734884808
 31
0.0
  0
LINE
  5
85
330
1F
100
AcDbEntity
  8
0
  6
Continuous
 62
     7
100
AcDbLine
 10
-139.0808498363567
 20
245.3652382129326
 30
0.0
 11
-139.2390316199794
 21
245.70446014261
 31
0.0
  0
LINE
  5
86
330
1F
100
AcDbEntity
  8
0
  6
Continuous
 62
     7
100
AcDbLine
 10
-123.848994187107
 20
247.1433872782454
 30
0.0
 11
-119.7011342362139
 21
249.0775661383013
 31
0.0
  0
LINE
  5
87
330
1F
100
AcDbEntity
  8
0
  6
Continuous
 62
     7
100
AcDbLine
 10
-124.6116971017917
 20
253.9596895414872
 30
0.0
 11
-124.3851201550325
 21
254.0653441069223
 31
0.0
  0
LINE
  5
88
330
1F
100
AcDbEntity
  8
0
  6
Continuous
 62
     7
100
AcDbLine
 10
-126.7377145884294
 20
252.9683113060966
 30
0.0
 11
-124.6116971017917
 21
253.9596895414872
 31
0.0
  0
LINE
  5
89
330
1F
100
AcDbEntity
  8
0
  6
Continuous
 62
     7
100
AcDbLine
 10
-125.9429088460288
 20
252.235557391561
 30
0.0
 11
-124.189078840051
 21
253.0533817544505
 31
0.0
  0
LINE
  5
8A
330
1F
100
AcDbEntity
  8
0
  6
Continuous
 62
     7
100
AcDbLine
 10
-128.8722929388218
 20
254.1796969123016
 30
0.0
 11
-124.3073437793159
 21
256.3083676644675
 31
0.0
  0
LINE
  5
8B
330
1F
100
AcDbEntity
  8
0
  6
Continuous
 62
     7
100
AcDbLine
 10
-124.3851201550325
 20
254.0653441069223
 30
0.0
 11
-124.3083829055144
 21
254.1011272740383
 31
0.0
  0
LINE
  5
8C
330
1F
100
AcDbEntity
  8
0
  6
Continuous
 62
     7
100
AcDbLine
 10
-123.2586385661614
 20
254.5906310985835
 30
0.0
 11
-124.3083829055144
 21
254.1011272740383
 31
0.0
  0
LINE
  5
8D
330
1F
100
AcDbEntity
  8
0
  6
Continuous
 62
     7
100
AcDbLine
 10
-123.7436217745161
 20
255.5781954253099
 30
0.0
 11
-124.0394545577345
 21
256.2126108762355
 31
0.0
  0
LINE
  5
8E
330
1F
100
AcDbEntity
  8
0
  6
Continuous
 62
     7
100
AcDbLine
 10
-123.2522354212367
 20
254.5936169340982
 30
0.0
 11
-123.7171155091514
 21
255.5905554998385
 31
0.0
  0
LINE
  5
8F
330
1F
100
AcDbEntity
  8
0
  6
Continuous
 62
     7
100
AcDbLine
 10
-123.2586385661614
 20
254.5906310985835
 30
0.0
 11
-123.2522354212367
 21
254.5936169340982
 31
0.0
  0
LINE
  5
90
330
1F
100
AcDbEntity
  8
0
  6
Continuous
 62
     7
100
AcDbLine
 10
-123.7436217745161
 20
255.5781954253099
 30
0.0
 11
-123.7171155091514
 21
255.5905554998385
 31
0.0
  0
LINE
  5
91
330
1F
100
AcDbEntity
  8
0
  6
Continuous
 62
     7
100
AcDbLine
 10
-124.6116971017917
 20
253.9596895414872
 30
0.0
 11
-124.3851201550325
 21
254.0653441069223
 31
0.0
  0
LINE
  5
92
330
1F
100
AcDbEntity
  8
0
  6
Continuous
 62
     7
100
AcDbLine
 10
-126.7377145884294
 20
252.9683113060966
 30
0.0
 11
-124.6116971017917
 21
253.9596895414872
 31
0.0
  0
LINE
  5
93
330
1F
100
AcDbEntity
  8
0
  6
Continuous
 62
     7
100
AcDbLine
 10
-125.9429088460288
 20
252.235557391561
 30
0.0
 11
-124.189078840051
 21
253.0533817544505
 31
0.0
  0
LINE
  5
94
330
1F
100
AcDbEntity
  8
0
  6
Continuous
 62
     7
100
AcDbLine
 10
-124.3851201550325
 20
254.0653441069223
 30
0.0
 11
-124.3083829055144
 21
254.1011272740383
 31
0.0
  0
LINE
  5
95
330
1F
100
AcDbEntity
  8
0
  6
Continuous
 62
     7
100
AcDbLine
 10
-123.2586385661614
 20
254.5906310985835
 30
0.0
 11
-124.3083829055144
 21
254.1011272740383
 31
0.0
  0
LINE
  5
96
330
1F
100
AcDbEntity
  8
0
  6
Continuous
 62
     7
100
AcDbLine
 10
-124.189078840051
 20
253.0533817544505
 30
0.0
 11
-123.8857646437737
 21
253.1948194870018
 31
0.0
  0
LINE
  5
97
330
1F
100
AcDbEntity
  8
0
  6
Continuous
 62
     7
100
AcDbLine
 10
-123.8857646437737
 20
253.1948194870018
 30
0.0
 11
-122.8360203044208
 21
253.6843233115469
 31
0.0
  0
LINE
  5
98
330
1F
100
AcDbEntity
  8
0
  6
Continuous
 62
     7
100
AcDbLine
 10
-122.8360203044208
 20
253.6843233115469
 30
0.0
 11
-123.2586385661614
 21
254.5906310985835
 31
0.0
  0
LINE
  5
99
330
1F
100
AcDbEntity
  8
0
  6
Continuous
 62
     7
100
AcDbLine
 10
-126.7966813157329
 20
246.9546735538131
 30
0.0
 11
-125.7966813157329
 21
246.9546735538131
 31
0.0
  0
LINE
  5
9A
330
1F
100
AcDbEntity
  8
0
  6
Continuous
 62
     7
100
AcDbLine
 10
-132.550398315733
 20
242.3119316717018
 30
0.0
 11
-132.550398315733
 21
243.0826518359104
 31
0.0
  0
LINE
  5
9B
330
1F
100
AcDbEntity
  8
0
  6
Continuous
 62
     7
100
AcDbLine
 10
-130.5503983157331
 20
243.080732384421
 30
0.0
 11
-130.5503983157336
 21
242.3103307387869
 31
0.0
  0
LINE
  5
9C
330
1F
100
AcDbEntity
  8
0
  6
Continuous
 62
     7
100
AcDbLine
 10
-132.550398315733
 20
242.3119316717018
 30
0.0
 11
-132.550398315733
 21
241.2929554237831
 31
0.0
  0
LINE
  5
9D
330
1F
100
AcDbEntity
  8
0
  6
Continuous
 62
     7
100
AcDbLine
 10
-136.2966813157329
 20
246.9546735538131
 30
0.0
 11
-137.2966813157329
 21
246.9546735538131
 31
0.0
  0
LINE
  5
9E
330
1F
100
AcDbEntity
  8
0
  6
Continuous
 62
     7
100
AcDbLine
 10
-132.8466813157329
 20
246.9546735538131
 30
0.0
 11
-132.9466813157329
 21
246.9546735538131
 31
0.0
  0
LINE
  5
9F
330
1F
100
AcDbEntity
  8
0
  6
Continuous
 62
     7
100
AcDbLine
 10
-130.5503983157331
 20
241.2916425470191
 30
0.0
 11
-130.5503983157336
 21
242.3103307387869
 31
0.0
  0
LINE
  5
A0
330
1F
100
AcDbEntity
  8
0
  6
Continuous
 62
     7
100
AcDbLine
 10
-130.1466813157329
 20
246.9546735538131
 30
0.0
 11
-126.7966813157329
 21
246.9546735538131
 31
0.0
  0
LINE
  5
A1
330
1F
100
AcDbEntity
  8
0
  6
Continuous
 62
     7
100
AcDbLine
 10
-130.2466813157329
 20
246.9546735538131
 30
0.0
 11
-130.1466813157329
 21
246.9546735538131
 31
0.0
  0
LINE
  5
A2
330
1F
100
AcDbEntity
  8
0
  6
Continuous
 62
     7
100
AcDbLine
 10
-132.9466813157329
 20
246.9546735538131
 30
0.0
 11
-136.2966813157329
 21
246.9546735538131
 31
0.0
  0
LINE
  5
A3
330
1F
100
AcDbEntity
  8
0
  6
Continuous
 62
     7
100
AcDbLine
 10
-130.5429643157327
 20
251.5974154359245
 30
0.0
 11
-130.5429643157327
 21
250.8266952717159
 31
0.0
  0
LINE
  5
A4
330
1F
100
AcDbEntity
  8
0
  6
Continuous
 62
     7
100
AcDbLine
 10
-132.5429643157327
 20
250.8286147232053
 30
0.0
 11
-132.5429643157322
 21
251.5990163688394
 31
0.0
  0
LINE
  5
A5
330
1F
100
AcDbEntity
  8
0
  6
Continuous
 62
     7
100
AcDbLine
 10
-126.7966813157329
 20
246.9546735538131
 30
0.0
 11
-125.7966813157329
 21
246.9546735538131
 31
0.0
  0
LINE
  5
A6
330
1F
100
AcDbEntity
  8
0
  6
Continuous
 62
     7
100
AcDbLine
 10
-132.5429643157327
 20
252.6177045606073
 30
0.0
 11
-132.5429643157322
 21
251.5990163688394
 31
0.0
  0
LINE
  5
A7
330
1F
100
AcDbEntity
  8
0
  6
Continuous
 62
     7
100
AcDbLine
 10
-130.5429643157327
 20
251.5974154359245
 30
0.0
 11
-130.5429643157327
 21
252.6163916838432
 31
0.0
  0
LINE
  5
A8
330
1F
100
AcDbEntity
  8
0
  6
Continuous
 62
     7
100
AcDbLine
 10
-136.2966813157329
 20
246.9546735538131
 30
0.0
 11
-137.2966813157329
 21
246.9546735538131
 31
0.0
  0
LINE
  5
A9
330
1F
100
AcDbEntity
  8
0
  6
Continuous
 62
     7
100
AcDbLine
 10
-132.8466813157329
 20
246.9546735538131
 30
0.0
 11
-132.9466813157329
 21
246.9546735538131
 31
0.0
  0
LINE
  5
AA
330
1F
100
AcDbEntity
  8
0
  6
Continuous
 62
     7
100
AcDbLine
 10
-130.1466813157329
 20
246.9546735538131
 30
0.0
 11
-126.7966813157329
 21
246.9546735538131
 31
0.0
  0
LINE
  5
AB
330
1F
100
AcDbEntity
  8
0
  6
Continuous
 62
     7
100
AcDbLine
 10
-130.2466813157329
 20
246.9546735538131
 30
0.0
 11
-130.1466813157329
 21
246.9546735538131
 31
0.0
  0
LINE
  5
AC
330
1F
100
AcDbEntity
  8
0
  6
Continuous
 62
     7
100
AcDbLine
 10
-132.9466813157329
 20
246.9546735538131
 30
0.0
 11
-136.2966813157329
 21
246.9546735538131
 31
0.0
  0
LINE
  5
AD
330
1F
100
AcDbEntity
  8
0
  6
Continuous
 62
     7
100
AcDbLine
 10
-132.9466813157328
 20
236.3546735538131
 30
0.0
 11
-130.1466813157329
 21
236.3546735538131
 31
0.0
  0
LINE
  5
AE
330
1F
100
AcDbEntity
  8
0
  6
Continuous
 62
     7
100
AcDbLine
 10
-130.1466813157329
 20
236.3546735538131
 30
0.0
 11
-130.1466813157329
 21
239.3830158753388
 31
0.0
  0
LINE
  5
AF
330
1F
100
AcDbEntity
  8
0
  6
Continuous
 62
     7
100
AcDbLine
 10
-132.9466813157328
 20
239.3830158753387
 30
0.0
 11
-132.9466813157328
 21
236.3546735538131
 31
0.0
  0
LINE
  5
B0
330
1F
100
AcDbEntity
  8
0
  6
Continuous
 62
     7
100
AcDbLine
 10
-132.4966813157328
 20
241.2330042169849
 30
0.0
 11
-132.4966813157329
 21
242.3546735538132
 31
0.0
  0
LINE
  5
B1
330
1F
100
AcDbEntity
  8
0
  6
Continuous
 62
     7
100
AcDbLine
 10
-130.5966813157329
 20
242.3546735538132
 30
0.0
 11
-130.5966813157329
 21
241.2330042169849
 31
0.0
  0
LINE
  5
B2
330
1F
100
AcDbEntity
  8
0
  6
Continuous
 62
     7
100
AcDbLine
 10
-132.4966813157329
 20
242.3546735538132
 30
0.0
 11
-130.5966813157329
 21
242.3546735538132
 31
0.0
  0
LINE
  5
B3
330
1F
100
AcDbEntity
  8
0
  6
Continuous
 62
     7
100
AcDbLine
 10
-126.2272952442542
 20
185.8500044408134
 30
0.0
 11
-126.2272952442542
 21
187.2000044408134
 31
0.0
  0
LINE
  5
B4
330
1F
100
AcDbEntity
  8
0
  6
Continuous
 62
     7
100
AcDbLine
 10
-126.9523414738835
 20
187.2000044408134
 30
0.0
 11
-126.9523414738835
 21
185.8500044408134
 31
0.0
  0
LINE
  5
B5
330
1F
100
AcDbEntity
  8
0
  6
Continuous
 62
     7
100
AcDbLine
 10
-126.2272952442542
 20
187.2000044408134
 30
0.0
 11
-126.9523414738835
 21
187.2000044408134
 31
0.0
  0
LINE
  5
B6
330
1F
100
AcDbEntity
  8
0
  6
Continuous
 62
     7
100
AcDbLine
 10
-126.5719850383169
 20
185.8500044408134
 30
0.0
 11
-126.5719850383169
 21
187.2000044408134
 31
0.0
  0
LINE
  5
B7
330
1F
100
AcDbEntity
  8
0
  6
Continuous
 62
     7
100
AcDbLine
 10
-124.3073437793159
 20
185.8500044408134
 30
0.0
 11
-126.2272952442542
 21
185.8500044408134
 31
0.0
  0
LINE
  5
B8
330
1F
100
AcDbEntity
  8
0
  6
Continuous
 62
     7
100
AcDbLine
 10
-126.2272952442542
 20
185.0500044408134
 30
0.0
 11
-124.3073437793159
 21
185.0500044408134
 31
0.0
  0
LINE
  5
B9
330
1F
100
AcDbEntity
  8
0
  6
Continuous
 62
     7
100
AcDbLine
 10
-125.7445818355874
 20
188.2000044408134
 30
0.0
 11
-126.5052947067207
 21
188.2000044408134
 31
0.0
  0
LINE
  5
BA
330
1F
100
AcDbEntity
  8
0
  6
Continuous
 62
     7
100
AcDbLine
 10
-123.743621774516
 20
185.0500044408134
 30
0.0
 11
-124.0394545577345
 21
185.0500044408134
 31
0.0
  0
LINE
  5
BB
330
1F
100
AcDbEntity
  8
0
  6
Continuous
 62
     7
100
AcDbLine
 10
-124.3073437793159
 20
185.0500044408134
 30
0.0
 11
-124.0394545577345
 21
185.0500044408134
 31
0.0
  0
LINE
  5
BC
330
1F
100
AcDbEntity
  8
0
  6
Continuous
 62
     7
100
AcDbLine
 10
-124.0394545577345
 20
185.8500044408134
 30
0.0
 11
-124.3073437793159
 21
185.8500044408134
 31
0.0
  0
LINE
  5
BD
330
1F
100
AcDbEntity
  8
0
  6
Continuous
 62
     7
100
AcDbLine
 10
-123.743621774516
 20
185.8500044408134
 30
0.0
 11
-124.0394545577345
 21
185.8500044408134
 31
0.0
  0
LINE
  5
BE
330
1F
100
AcDbEntity
  8
0
  6
Continuous
 62
     7
100
AcDbLine
 10
-126.9523414738835
 20
185.8500044408134
 30
0.0
 11
-128.8722929388218
 21
185.8500044408134
 31
0.0
  0
LINE
  5
BF
330
1F
100
AcDbEntity
  8
0
  6
Continuous
 62
     7
100
AcDbLine
 10
-128.8722929388218
 20
185.0500044408134
 30
0.0
 11
-126.9523414738835
 21
185.0500044408134
 31
0.0
  0
LINE
  5
C0
330
1F
100
AcDbEntity
  8
0
  6
Continuous
 62
     7
100
AcDbLine
 10
-128.9896911978032
 20
185.0500044408134
 30
0.0
 11
-128.8722929388218
 21
185.0500044408134
 31
0.0
  0
LINE
  5
C1
330
1F
100
AcDbEntity
  8
0
  6
Continuous
 62
     7
100
AcDbLine
 10
-126.2272952442542
 20
183.7000044408134
 30
0.0
 11
-126.2272952442542
 21
185.0500044408134
 31
0.0
  0
LINE
  5
C2
330
1F
100
AcDbEntity
  8
0
  6
Continuous
 62
     7
100
AcDbLine
 10
-128.8722929388218
 20
185.8500044408134
 30
0.0
 11
-128.9896911978032
 21
185.8500044408134
 31
0.0
  0
LINE
  5
C3
330
1F
100
AcDbEntity
  8
0
  6
Continuous
 62
     7
100
AcDbLine
 10
-126.9523414738835
 20
183.7000044408134
 30
0.0
 11
-126.2272952442542
 21
183.7000044408134
 31
0.0
  0
LINE
  5
C4
330
1F
100
AcDbEntity
  8
0
  6
Continuous
 62
     7
100
AcDbLine
 10
-126.9523414738835
 20
185.0500044408134
 30
0.0
 11
-126.9523414738835
 21
183.7000044408134
 31
0.0
  0
LINE
  5
C5
330
1F
100
AcDbEntity
  8
0
  6
Continuous
 62
     7
100
AcDbLine
 10
-126.5719850383169
 20
185.8500044408134
 30
0.0
 11
-126.9523414738835
 21
185.8500044408134
 31
0.0
  0
LINE
  5
C6
330
1F
100
AcDbEntity
  8
0
  6
Continuous
 62
     7
100
AcDbLine
 10
-126.5719850383169
 20
183.7000044408134
 30
0.0
 11
-126.5719850383169
 21
185.0500044408134
 31
0.0
  0
LINE
  5
C7
330
1F
100
AcDbEntity
  8
0
  6
Continuous
 62
     7
100
AcDbLine
 10
-126.9523414738835
 20
185.0500044408134
 30
0.0
 11
-126.5719850383169
 21
185.0500044408134
 31
0.0
  0
LINE
  5
C8
330
1F
100
AcDbEntity
  8
0
  6
Continuous
 62
     7
100
AcDbLine
 10
-125.7445818355874
 20
182.7000044408134
 30
0.0
 11
-126.5052947067207
 21
182.7000044408134
 31
0.0
  0
LINE
  5
C9
330
1F
100
AcDbEntity
  8
0
  6
Continuous
 62
     7
100
AcDbLine
 10
-125.3180463994335
 20
188.2000044408134
 30
0.0
 11
-125.7406646611742
 21
188.2000044408134
 31
0.0
  0
LINE
  5
CA
330
1F
100
AcDbEntity
  8
0
  6
Continuous
 62
     7
100
AcDbLine
 10
-122.8360203044207
 20
185.2000044408134
 30
0.0
 11
-123.2586385661614
 21
185.2000044408134
 31
0.0
  0
LINE
  5
CB
330
1F
100
AcDbEntity
  8
0
  6
Continuous
 62
     7
100
AcDbLine
 10
-123.2625557405746
 20
185.2000044408134
 30
0.0
 11
-123.2586385661614
 21
185.2000044408134
 31
0.0
  0
LINE
  5
CC
330
1F
100
AcDbEntity
  8
0
  6
Continuous
 62
     7
100
AcDbLine
 10
-123.2586385661614
 20
185.7000044408134
 30
0.0
 11
-123.2625557405746
 21
185.7000044408134
 31
0.0
  0
LINE
  5
CD
330
1F
100
AcDbEntity
  8
0
  6
Continuous
 62
     7
100
AcDbLine
 10
-122.8360203044207
 20
185.7000044408134
 30
0.0
 11
-123.2586385661614
 21
185.7000044408134
 31
0.0
  0
LINE
  5
CE
330
1F
100
AcDbEntity
  8
0
  6
Continuous
 62
     7
100
AcDbLine
 10
-125.3180463994335
 20
182.7000044408134
 30
0.0
 11
-125.7406646611742
 21
182.7000044408134
 31
0.0
  0
LINE
  5
CF
330
1F
100
AcDbEntity
  8
0
  6
Continuous
 62
     7
100
AcDbLine
 10
-137.418231473002
 20
187.9500044408134
 30
0.0
 11
-137.418231473002
 21
188.2000044408134
 31
0.0
  0
LINE
  5
D0
330
1F
100
AcDbEntity
  8
0
  6
Continuous
 62
     7
100
AcDbLine
 10
-137.418231473002
 20
182.7000044408134
 30
0.0
 11
-137.418231473002
 21
182.9500044408134
 31
0.0
  0
LINE
  5
D1
330
1F
100
AcDbEntity
  8
0
  6
Continuous
 62
     7
100
AcDbLine
 10
-138.5685086957267
 20
182.7000044408134
 30
0.0
 11
-137.418231473002
 21
182.7000044408134
 31
0.0
  0
LINE
  5
D2
330
1F
100
AcDbEntity
  8
0
  6
Continuous
 62
     7
100
AcDbLine
 10
-138.6860862582241
 20
188.2000044408134
 30
0.0
 11
-138.6860862582241
 21
182.7000044408134
 31
0.0
  0
LINE
  5
D3
330
1F
100
AcDbEntity
  8
0
  6
Continuous
 62
     7
100
AcDbLine
 10
-138.6860862582241
 20
182.7000044408134
 30
0.0
 11
-138.5685086957267
 21
182.7000044408134
 31
0.0
  0
LINE
  5
D4
330
1F
100
AcDbEntity
  8
0
  6
Continuous
 62
     7
100
AcDbLine
 10
-138.5685086957267
 20
181.4500044408134
 30
0.0
 11
-138.5685086957267
 21
182.7000044408134
 31
0.0
  0
LINE
  5
D5
330
1F
100
AcDbEntity
  8
0
  6
Continuous
 62
     7
100
AcDbLine
 10
-138.5685086957267
 20
188.2000044408134
 30
0.0
 11
-137.418231473002
 21
188.2000044408134
 31
0.0
  0
LINE
  5
D6
330
1F
100
AcDbEntity
  8
0
  6
Continuous
 62
     7
100
AcDbLine
 10
-138.5685086957267
 20
188.2000044408134
 30
0.0
 11
-138.5685086957267
 21
189.4500044408134
 31
0.0
  0
LINE
  5
D7
330
1F
100
AcDbEntity
  8
0
  6
Continuous
 62
     7
100
AcDbLine
 10
-138.5685086957267
 20
189.4500044408134
 30
0.0
 11
-139.0939247623906
 21
189.4500044408134
 31
0.0
  0
LINE
  5
D8
330
1F
100
AcDbEntity
  8
0
  6
Continuous
 62
     7
100
AcDbLine
 10
-139.2671392838684
 20
189.4500044408134
 30
0.0
 11
-139.0939247623906
 21
189.4500044408134
 31
0.0
  0
LINE
  5
D9
330
1F
100
AcDbEntity
  8
0
  6
Continuous
 62
     7
100
AcDbLine
 10
-139.2671392838684
 20
181.4500044408134
 30
0.0
 11
-139.2671392838684
 21
189.4500044408134
 31
0.0
  0
LINE
  5
DA
330
1F
100
AcDbEntity
  8
0
  6
Continuous
 62
     7
100
AcDbLine
 10
-138.5685086957267
 20
188.2000044408134
 30
0.0
 11
-138.6860862582241
 21
188.2000044408134
 31
0.0
  0
LINE
  5
DB
330
1F
100
AcDbEntity
  8
0
  6
Continuous
 62
     7
100
AcDbLine
 10
-136.6468937373916
 20
188.2000044408134
 30
0.0
 11
-136.6468937373916
 21
182.7000044408134
 31
0.0
  0
LINE
  5
DC
330
1F
100
AcDbEntity
  8
0
  6
Continuous
 62
     7
100
AcDbLine
 10
-139.0939247623906
 20
181.4500044408134
 30
0.0
 11
-138.5685086957267
 21
181.4500044408134
 31
0.0
  0
LINE
  5
DD
330
1F
100
AcDbEntity
  8
0
  6
Continuous
 62
     7
100
AcDbLine
 10
-139.2671392838684
 20
181.4500044408134
 30
0.0
 11
-139.0939247623906
 21
181.4500044408134
 31
0.0
  0
LINE
  5
DE
330
1F
100
AcDbEntity
  8
0
  6
Continuous
 62
     7
100
AcDbLine
 10
-134.4137452192081
 20
188.2000044408134
 30
0.0
 11
-134.4137452192081
 21
182.7000044408134
 31
0.0
  0
LINE
  5
DF
330
1F
100
AcDbEntity
  8
0
  6
Continuous
 62
     7
100
AcDbLine
 10
-128.4901236540618
 20
187.1348887395116
 30
0.0
 11
-128.4901236540618
 21
188.2000044408134
 31
0.0
  0
LINE
  5
E0
330
1F
100
AcDbEntity
  8
0
  6
Continuous
 62
     7
100
AcDbLine
 10
-132.3875231257018
 20
188.2000044408134
 30
0.0
 11
-132.3875231257018
 21
182.7000044408134
 31
0.0
  0
LINE
  5
E1
330
1F
100
AcDbEntity
  8
0
  6
Continuous
 62
     7
100
AcDbLine
 10
-137.418231473002
 20
188.2000044408134
 30
0.0
 11
-127.1306619735068
 21
188.2000044408134
 31
0.0
  0
LINE
  5
E2
330
1F
100
AcDbEntity
  8
0
  6
Continuous
 62
     7
100
AcDbLine
 10
-127.1306619735068
 20
188.2000044408134
 30
0.0
 11
-127.1306619735068
 21
189.4500044408134
 31
0.0
  0
LINE
  5
E3
330
1F
100
AcDbEntity
  8
0
  6
Continuous
 62
     7
100
AcDbLine
 10
-138.5685086957267
 20
181.4500044408134
 30
0.0
 11
-127.1306619735068
 21
181.4500044408134
 31
0.0
  0
LINE
  5
E4
330
1F
100
AcDbEntity
  8
0
  6
Continuous
 62
     7
100
AcDbLine
 10
-138.5685086957267
 20
189.4500044408134
 30
0.0
 11
-127.1306619735068
 21
189.4500044408134
 31
0.0
  0
LINE
  5
E5
330
1F
100
AcDbEntity
  8
0
  6
Continuous
 62
     7
100
AcDbLine
 10
-122.2974270118988
 20
189.4500044408134
 30
0.0
 11
-127.1306619735068
 21
189.4500044408134
 31
0.0
  0
LINE
  5
E6
330
1F
100
AcDbEntity
  8
0
  6
Continuous
 62
     7
100
AcDbLine
 10
-122.2974270118988
 20
189.4500044408134
 30
0.0
 11
-121.8987491972656
 21
189.4500044408134
 31
0.0
  0
LINE
  5
E7
330
1F
100
AcDbEntity
  8
0
  6
Continuous
 62
     7
100
AcDbLine
 10
-121.8987491972656
 20
181.4500044408134
 30
0.0
 11
-121.8987491972656
 21
189.4500044408134
 31
0.0
  0
LINE
  5
E8
330
1F
100
AcDbEntity
  8
0
  6
Continuous
 62
     7
100
AcDbLine
 10
-127.1306619735068
 20
181.4500044408134
 30
0.0
 11
-122.2974270118988
 21
181.4500044408134
 31
0.0
  0
LINE
  5
E9
330
1F
100
AcDbEntity
  8
0
  6
Continuous
 62
     7
100
AcDbLine
 10
-122.2974270118988
 20
181.4500044408134
 30
0.0
 11
-121.8987491972656
 21
181.4500044408134
 31
0.0
  0
LINE
  5
EA
330
1F
100
AcDbEntity
  8
0
  6
Continuous
 62
     7
100
AcDbLine
 10
-119.7011342362139
 20
181.4500044408134
 30
0.0
 11
-119.7011342362139
 21
189.4500044408134
 31
0.0
  0
LINE
  5
EB
330
1F
100
AcDbEntity
  8
0
  6
Continuous
 62
     7
100
AcDbLine
 10
-121.8987491972656
 20
181.4500044408134
 30
0.0
 11
-119.7011342362139
 21
181.4500044408134
 31
0.0
  0
LINE
  5
EC
330
1F
100
AcDbEntity
  8
0
  6
Continuous
 62
     7
100
AcDbLine
 10
-121.8987491972656
 20
189.4500044408134
 30
0.0
 11
-119.7011342362139
 21
189.4500044408134
 31
0.0
  0
LINE
  5
ED
330
1F
100
AcDbEntity
  8
0
  6
Continuous
 62
     7
100
AcDbLine
 10
-128.4901236540618
 20
182.7000044408134
 30
0.0
 11
-128.4901236540618
 21
183.7651200928411
 31
0.0
  0
LINE
  5
EE
330
1F
100
AcDbEntity
  8
0
  6
Continuous
 62
     7
100
AcDbLine
 10
-137.418231473002
 20
182.7000044408134
 30
0.0
 11
-127.1306619735068
 21
182.7000044408134
 31
0.0
  0
LINE
  5
EF
330
1F
100
AcDbEntity
  8
0
  6
Continuous
 62
     7
100
AcDbLine
 10
-127.1306619735068
 20
182.7000044408134
 30
0.0
 11
-127.1306619735068
 21
181.4500044408134
 31
0.0
  0
LINE
  5
F0
330
1F
100
AcDbEntity
  8
0
  6
Continuous
 62
     7
100
AcDbLine
 10
-53.920634889909
 20
185.0500044408134
 30
0.0
 11
-53.65386856332626
 21
185.0500044408134
 31
0.0
  0
LINE
  5
F1
330
1F
100
AcDbEntity
  8
0
  6
Continuous
 62
     7
100
AcDbLine
 10
-53.65386856332626
 20
185.8500044408134
 30
0.0
 11
-53.920634889909
 21
185.8500044408134
 31
0.0
  0
LINE
  5
F2
330
1F
100
AcDbEntity
  8
0
  6
Continuous
 62
     7
100
AcDbLine
 10
-54.55505034083464
 20
185.0500044408134
 30
0.0
 11
-53.920634889909
 21
185.0500044408134
 31
0.0
  0
LINE
  5
F3
330
1F
100
AcDbEntity
  8
0
  6
Continuous
 62
     7
100
AcDbLine
 10
-54.55505034083464
 20
185.8500044408134
 30
0.0
 11
-53.920634889909
 21
185.8500044408134
 31
0.0
  0
LINE
  5
F4
330
1F
100
AcDbEntity
  8
0
  6
Continuous
 62
     7
100
AcDbLine
 10
-52.75858049193963
 20
185.0500044408134
 30
0.0
 11
-52.75858049193963
 21
183.7000044408134
 31
0.0
  0
LINE
  5
F5
330
1F
100
AcDbEntity
  8
0
  6
Continuous
 62
     7
100
AcDbLine
 10
-54.40214876131665
 20
182.7000044408134
 30
0.0
 11
-52.77079474465069
 21
182.7000044408134
 31
0.0
  0
LINE
  5
F6
330
1F
100
AcDbEntity
  8
0
  6
Continuous
 62
     7
100
AcDbLine
 10
-54.40214876131665
 20
188.2000044408134
 30
0.0
 11
-52.77079474465069
 21
188.2000044408134
 31
0.0
  0
LINE
  5
F7
330
1F
100
AcDbEntity
  8
0
  6
Continuous
 62
     7
100
AcDbLine
 10
-52.75858049193963
 20
185.8500044408134
 30
0.0
 11
-53.65386856332626
 21
185.8500044408134
 31
0.0
  0
LINE
  5
F8
330
1F
100
AcDbEntity
  8
0
  6
Continuous
 62
     7
100
AcDbLine
 10
-52.75858049193963
 20
187.2000044408134
 30
0.0
 11
-52.75858049193963
 21
185.8500044408134
 31
0.0
  0
LINE
  5
F9
330
1F
100
AcDbEntity
  8
0
  6
Continuous
 62
     7
100
AcDbLine
 10
-53.65386856332626
 20
185.0500044408134
 30
0.0
 11
-52.75858049193963
 21
185.0500044408134
 31
0.0
  0
LINE
  5
FA
330
1F
100
AcDbEntity
  8
0
  6
Continuous
 62
     7
100
AcDbLine
 10
-52.75858049193963
 20
183.7000044408134
 30
0.0
 11
-52.42048588254707
 21
183.7000044408134
 31
0.0
  0
LINE
  5
FB
330
1F
100
AcDbEntity
  8
0
  6
Continuous
 62
     7
100
AcDbLine
 10
-52.42048588254707
 20
183.7000044408134
 30
0.0
 11
-52.42048588254707
 21
185.0500044408134
 31
0.0
  0
LINE
  5
FC
330
1F
100
AcDbEntity
  8
0
  6
Continuous
 62
     7
100
AcDbLine
 10
-52.42048588254707
 20
187.2000044408134
 30
0.0
 11
-52.75858049193963
 21
187.2000044408134
 31
0.0
  0
LINE
  5
FD
330
1F
100
AcDbEntity
  8
0
  6
Continuous
 62
     7
100
AcDbLine
 10
-52.42048588254707
 20
185.8500044408134
 30
0.0
 11
-52.75858049193963
 21
185.8500044408134
 31
0.0
  0
LINE
  5
FE
330
1F
100
AcDbEntity
  8
0
  6
Continuous
 62
     7
100
AcDbLine
 10
-52.42048588254707
 20
185.8500044408134
 30
0.0
 11
-52.42048588254707
 21
187.2000044408134
 31
0.0
  0
LINE
  5
FF
330
1F
100
AcDbEntity
  8
0
  6
Continuous
 62
     7
100
AcDbLine
 10
-51.52519781116041
 20
185.8500044408134
 30
0.0
 11
-52.42048588254707
 21
185.8500044408134
 31
0.0
  0
LINE
  5
100
330
1F
100
AcDbEntity
  8
0
  6
Continuous
 62
     7
100
AcDbLine
 10
-52.42048588254707
 20
185.0500044408134
 30
0.0
 11
-51.52519781116041
 21
185.0500044408134
 31
0.0
  0
LINE
  5
101
330
1F
100
AcDbEntity
  8
0
  6
Continuous
 62
     7
100
AcDbLine
 10
-52.75858049193963
 20
185.0500044408134
 30
0.0
 11
-52.42048588254707
 21
185.0500044408134
 31
0.0
  0
LINE
  5
102
330
1F
100
AcDbEntity
  8
0
  6
Continuous
 62
     7
100
AcDbLine
 10
-51.50602422337289
 20
185.8500044408134
 30
0.0
 11
-51.52519781116041
 21
185.8500044408134
 31
0.0
  0
LINE
  5
103
330
1F
100
AcDbEntity
  8
0
  6
Continuous
 62
     7
100
AcDbLine
 10
-51.52519781116041
 20
185.0500044408134
 30
0.0
 11
-51.50602422337289
 21
185.0500044408134
 31
0.0
  0
LINE
  5
104
330
1F
100
AcDbEntity
  8
0
  6
Continuous
 62
     7
100
AcDbLine
 10
-61.22328560429591
 20
182.7000044408134
 30
0.0
 11
-61.22328560429591
 21
181.4500044408134
 31
0.0
  0
LINE
  5
105
330
1F
100
AcDbEntity
  8
0
  6
Continuous
 62
     7
100
AcDbLine
 10
-61.22328560429591
 20
181.4500044408134
 30
0.0
 11
-61.73042751838472
 21
181.4500044408134
 31
0.0
  0
LINE
  5
106
330
1F
100
AcDbEntity
  8
0
  6
Continuous
 62
     7
100
AcDbLine
 10
-62.12910533301792
 20
181.4500044408134
 30
0.0
 11
-61.73042751838472
 21
181.4500044408134
 31
0.0
  0
LINE
  5
107
330
1F
100
AcDbEntity
  8
0
  6
Continuous
 62
     7
100
AcDbLine
 10
-61.22328560429591
 20
182.7000044408134
 30
0.0
 11
-61.54024930060143
 21
182.7000044408134
 31
0.0
  0
LINE
  5
108
330
1F
100
AcDbEntity
  8
0
  6
Continuous
 62
     7
100
AcDbLine
 10
-60.58935821168484
 20
188.2000044408134
 30
0.0
 11
-60.58935821168484
 21
182.7000044408134
 31
0.0
  0
LINE
  5
109
330
1F
100
AcDbEntity
  8
0
  6
Continuous
 62
     7
100
AcDbLine
 10
-61.22328560429588
 20
189.4500044408134
 30
0.0
 11
-61.73042751838472
 21
189.4500044408134
 31
0.0
  0
LINE
  5
10A
330
1F
100
AcDbEntity
  8
0
  6
Continuous
 62
     7
100
AcDbLine
 10
-61.5402493006014
 20
188.2000044408134
 30
0.0
 11
-61.54024930060143
 21
182.7000044408134
 31
0.0
  0
LINE
  5
10B
330
1F
100
AcDbEntity
  8
0
  6
Continuous
 62
     7
100
AcDbLine
 10
-61.22328560429588
 20
188.2000044408134
 30
0.0
 11
-61.5402493006014
 21
188.2000044408134
 31
0.0
  0
LINE
  5
10C
330
1F
100
AcDbEntity
  8
0
  6
Continuous
 62
     7
100
AcDbLine
 10
-62.12910533301792
 20
189.4500044408134
 30
0.0
 11
-61.73042751838472
 21
189.4500044408134
 31
0.0
  0
LINE
  5
10D
330
1F
100
AcDbEntity
  8
0
  6
Continuous
 62
     7
100
AcDbLine
 10
-62.12910533301792
 20
189.4500044408134
 30
0.0
 11
-64.57613635801687
 21
189.4500044408134
 31
0.0
  0
LINE
  5
10E
330
1F
100
AcDbEntity
  8
0
  6
Continuous
 62
     7
100
AcDbLine
 10
-64.57613635801687
 20
181.4500044408134
 30
0.0
 11
-62.12910533301792
 21
181.4500044408134
 31
0.0
  0
LINE
  5
10F
330
1F
100
AcDbEntity
  8
0
  6
Continuous
 62
     7
100
AcDbLine
 10
-64.57613635801687
 20
189.4500044408134
 30
0.0
 11
-64.57613635801687
 21
181.4500044408134
 31
0.0
  0
LINE
  5
110
330
1F
100
AcDbEntity
  8
0
  6
Continuous
 62
     7
100
AcDbLine
 10
-61.22328560429588
 20
188.2000044408134
 30
0.0
 11
-61.22328560429588
 21
189.4500044408134
 31
0.0
  0
LINE
  5
111
330
1F
100
AcDbEntity
  8
0
  6
Continuous
 62
     7
100
AcDbLine
 10
-61.22328560429588
 20
188.2000044408134
 30
0.0
 11
-57.55473578161147
 21
188.2000044408134
 31
0.0
  0
LINE
  5
112
330
1F
100
AcDbEntity
  8
0
  6
Continuous
 62
     7
100
AcDbLine
 10
-55.87496045977841
 20
188.2000044408134
 30
0.0
 11
-55.87496045977841
 21
182.7000044408134
 31
0.0
  0
LINE
  5
113
330
1F
100
AcDbEntity
  8
0
  6
Continuous
 62
     7
100
AcDbLine
 10
-57.55473578161147
 20
188.2000044408134
 30
0.0
 11
-52.68757603385168
 21
188.2000044408134
 31
0.0
  0
LINE
  5
114
330
1F
100
AcDbEntity
  8
0
  6
Continuous
 62
     7
100
AcDbLine
 10
-61.22328560429591
 20
181.4500044408134
 30
0.0
 11
-52.68757603385171
 21
181.4500044408134
 31
0.0
  0
LINE
  5
115
330
1F
100
AcDbEntity
  8
0
  6
Continuous
 62
     7
100
AcDbLine
 10
-52.68757603385171
 20
181.4500044408134
 30
0.0
 11
-52.68757603385171
 21
182.7000044408134
 31
0.0
  0
LINE
  5
116
330
1F
100
AcDbEntity
  8
0
  6
Continuous
 62
     7
100
AcDbLine
 10
-61.22328560429591
 20
182.7000044408134
 30
0.0
 11
-57.55473578161147
 21
182.7000044408134
 31
0.0
  0
LINE
  5
117
330
1F
100
AcDbEntity
  8
0
  6
Continuous
 62
     7
100
AcDbLine
 10
-57.55473578161147
 20
182.7000044408134
 30
0.0
 11
-52.68757603385171
 21
182.7000044408134
 31
0.0
  0
LINE
  5
118
330
1F
100
AcDbEntity
  8
0
  6
Continuous
 62
     7
100
AcDbLine
 10
-57.55473578161147
 20
188.2000044408134
 30
0.0
 11
-57.55473578161147
 21
182.7000044408134
 31
0.0
  0
LINE
  5
119
330
1F
100
AcDbEntity
  8
0
  6
Continuous
 62
     7
100
AcDbLine
 10
-52.68757603385168
 20
188.2000044408134
 30
0.0
 11
-52.68757603385168
 21
189.4500044408134
 31
0.0
  0
LINE
  5
11A
330
1F
100
AcDbEntity
  8
0
  6
Continuous
 62
     7
100
AcDbLine
 10
-61.22328560429588
 20
189.4500044408134
 30
0.0
 11
-52.68757603385168
 21
189.4500044408134
 31
0.0
  0
LINE
  5
11B
330
1F
100
AcDbEntity
  8
0
  6
Continuous
 62
     7
100
AcDbLine
 10
-62.12910533301792
 20
181.4500044408134
 30
0.0
 11
-62.12910533301792
 21
189.4500044408134
 31
0.0
  0
LINE
  5
11C
330
1F
100
AcDbEntity
  8
0
  6
Continuous
 62
     7
100
AcDbLine
 10
-55.3066299399261
 20
188.2000044408134
 30
0.0
 11
-54.40032215288943
 21
188.2000044408134
 31
0.0
  0
LINE
  5
11D
330
1F
100
AcDbEntity
  8
0
  6
Continuous
 62
     7
100
AcDbLine
 10
-55.3066299399261
 20
182.7000044408134
 30
0.0
 11
-54.40032215288943
 21
182.7000044408134
 31
0.0
  0
LINE
  5
11E
330
1F
100
AcDbEntity
  8
0
  6
Continuous
 62
     7
100
AcDbLine
 10
-123.8466813157328
 20
142.9500044408134
 30
0.0
 11
-139.2466813157328
 21
142.9500044408134
 31
0.0
  0
LINE
  5
11F
330
1F
100
AcDbEntity
  8
0
  6
Continuous
 62
     7
100
AcDbLine
 10
-139.2466813157328
 20
166.9500044408134
 30
0.0
 11
-139.2466813157328
 21
142.9500044408134
 31
0.0
  0
LINE
  5
120
330
1F
100
AcDbEntity
  8
0
  6
Continuous
 62
     7
100
AcDbLine
 10
-123.8466813157328
 20
166.9500044408134
 30
0.0
 11
-123.8466813157328
 21
142.9500044408134
 31
0.0
  0
LINE
  5
121
330
1F
100
AcDbEntity
  8
0
  6
Continuous
 62
     7
100
AcDbLine
 10
-139.2466813157328
 20
171.9500044408134
 30
0.0
 11
-139.2466813157328
 21
166.9500044408134
 31
0.0
  0
LINE
  5
122
330
1F
100
AcDbEntity
  8
0
  6
Continuous
 62
     7
100
AcDbLine
 10
-139.0991643511325
 20
171.9500044408134
 30
0.0
 11
-139.2466813157328
 21
171.9500044408134
 31
0.0
  0
LINE
  5
123
330
1F
100
AcDbEntity
  8
0
  6
Continuous
 62
     7
100
AcDbLine
 10
-136.7121476435271
 20
186.4500044408134
 30
0.0
 11
-136.9840399796381
 21
186.4500044408134
 31
0.0
  0
LINE
  5
124
330
1F
100
AcDbEntity
  8
0
  6
Continuous
 62
     7
100
AcDbLine
 10
-136.7121476435271
 20
186.4500044408134
 30
0.0
 11
-136.6468937373916
 21
186.4500044408134
 31
0.0
  0
LINE
  5
125
330
1F
100
AcDbEntity
  8
0
  6
Continuous
 62
     7
100
AcDbLine
 10
-136.7121476435271
 20
184.4500044408134
 30
0.0
 11
-136.6468937373916
 21
184.4500044408134
 31
0.0
  0
LINE
  5
126
330
1F
100
AcDbEntity
  8
0
  6
Continuous
 62
     7
100
AcDbLine
 10
-136.9840399796381
 20
184.4500044408134
 30
0.0
 11
-136.7121476435271
 21
184.4500044408134
 31
0.0
  0
LINE
  5
127
330
1F
100
AcDbEntity
  8
0
  6
Continuous
 62
     7
100
AcDbLine
 10
-136.9840399796381
 20
184.4500044408134
 30
0.0
 11
-136.9840399796381
 21
186.4500044408134
 31
0.0
  0
LINE
  5
128
330
1F
100
AcDbEntity
  8
0
  6
Continuous
 62
     7
100
AcDbLine
 10
-137.9071462996934
 20
187.9500044408134
 30
0.0
 11
-137.6184554305637
 21
187.9500044408134
 31
0.0
  0
LINE
  5
129
330
1F
100
AcDbEntity
  8
0
  6
Continuous
 62
     7
100
AcDbLine
 10
-137.6184554305637
 20
187.9500044408134
 30
0.0
 11
-136.6468937373916
 21
187.9500044408134
 31
0.0
  0
LINE
  5
12A
330
1F
100
AcDbEntity
  8
0
  6
Continuous
 62
     7
100
AcDbLine
 10
-137.9071462996934
 20
182.9500044408134
 30
0.0
 11
-137.9071462996934
 21
187.9500044408134
 31
0.0
  0
LINE
  5
12B
330
1F
100
AcDbEntity
  8
0
  6
Continuous
 62
     7
100
AcDbLine
 10
-137.6184554305637
 20
182.9500044408134
 30
0.0
 11
-137.6184554305637
 21
187.9500044408134
 31
0.0
  0
LINE
  5
12C
330
1F
100
AcDbEntity
  8
0
  6
Continuous
 62
     7
100
AcDbLine
 10
-137.6184554305637
 20
182.9500044408134
 30
0.0
 11
-136.6468937373916
 21
182.9500044408134
 31
0.0
  0
LINE
  5
12D
330
1F
100
AcDbEntity
  8
0
  6
Continuous
 62
     7
100
AcDbLine
 10
-137.9071462996934
 20
182.9500044408134
 30
0.0
 11
-137.6184554305637
 21
182.9500044408134
 31
0.0
  0
LINE
  5
12E
330
1F
100
AcDbEntity
  8
0
  6
Continuous
 62
     7
100
AcDbLine
 10
-138.0466813157328
 20
173.9500044408134
 30
0.0
 11
-138.0466813157328
 21
180.9500044408134
 31
0.0
  0
LINE
  5
12F
330
1F
100
AcDbEntity
  8
0
  6
Continuous
 62
     7
100
AcDbLine
 10
-139.0991643511325
 20
171.9500044408134
 30
0.0
 11
-139.0991643511325
 21
166.9500044408134
 31
0.0
  0
LINE
  5
130
330
1F
100
AcDbEntity
  8
0
  6
Continuous
 62
     7
100
AcDbLine
 10
-139.2466813157328
 20
173.9500044408134
 30
0.0
 11
-139.2466813157328
 21
171.9500044408134
 31
0.0
  0
LINE
  5
131
330
1F
100
AcDbEntity
  8
0
  6
Continuous
 62
     7
100
AcDbLine
 10
-139.0991643511325
 20
166.9500044408134
 30
0.0
 11
-139.1814701143833
 21
166.9500044408134
 31
0.0
  0
LINE
  5
132
330
1F
100
AcDbEntity
  8
0
  6
Continuous
 62
     7
100
AcDbLine
 10
-138.7273846239053
 20
166.9500044408134
 30
0.0
 11
-139.0991643511325
 21
166.9500044408134
 31
0.0
  0
LINE
  5
133
330
1F
100
AcDbEntity
  8
0
  6
Continuous
 62
     7
100
AcDbLine
 10
-139.0991643511325
 20
171.9500044408134
 30
0.0
 11
-139.2466813157328
 21
171.9500044408134
 31
0.0
  0
LINE
  5
134
330
1F
100
AcDbEntity
  8
0
  6
Continuous
 62
     7
100
AcDbLine
 10
-123.8466813157328
 20
166.9500044408134
 30
0.0
 11
-124.2966813157328
 21
166.9500044408134
 31
0.0
  0
LINE
  5
135
330
1F
100
AcDbEntity
  8
0
  6
Continuous
 62
     7
100
AcDbLine
 10
-124.2966813157328
 20
166.9500044408134
 30
0.0
 11
-138.7273846239053
 21
166.9500044408134
 31
0.0
  0
LINE
  5
136
330
1F
100
AcDbEntity
  8
0
  6
Continuous
 62
     7
100
AcDbLine
 10
-128.9966813157328
 20
171.8500044408134
 30
0.0
 11
-128.9966813157328
 21
170.6000044408134
 31
0.0
  0
LINE
  5
137
330
1F
100
AcDbEntity
  8
0
  6
Continuous
 62
     7
100
AcDbLine
 10
-128.9966813157328
 20
170.6000044408134
 30
0.0
 11
-134.0966813157328
 21
170.6000044408134
 31
0.0
  0
LINE
  5
138
330
1F
100
AcDbEntity
  8
0
  6
Continuous
 62
     7
100
AcDbLine
 10
-128.9966813157328
 20
171.8500044408134
 30
0.0
 11
-134.0966813157328
 21
171.8500044408134
 31
0.0
  0
LINE
  5
139
330
1F
100
AcDbEntity
  8
0
  6
Continuous
 62
     7
100
AcDbLine
 10
-134.0966813157328
 20
171.8500044408134
 30
0.0
 11
-134.0966813157328
 21
170.6000044408134
 31
0.0
  0
LINE
  5
13A
330
1F
100
AcDbEntity
  8
0
  6
Continuous
 62
     7
100
AcDbLine
 10
-123.8466813157328
 20
173.9500044408134
 30
0.0
 11
-139.2466813157328
 21
173.9500044408134
 31
0.0
  0
LINE
  5
13B
330
1F
100
AcDbEntity
  8
0
  6
Continuous
 62
     7
100
AcDbLine
 10
-127.14781755453
 20
181.4500044408134
 30
0.0
 11
-127.14781755453
 21
180.9500044408134
 31
0.0
  0
LINE
  5
13C
330
1F
100
AcDbEntity
  8
0
  6
Continuous
 62
     7
100
AcDbLine
 10
-132.9026935924026
 20
181.4500044408134
 30
0.0
 11
-132.9026935924026
 21
180.9500044408134
 31
0.0
  0
LINE
  5
13D
330
1F
100
AcDbEntity
  8
0
  6
Continuous
 62
     7
100
AcDbLine
 10
-132.9026935924026
 20
180.9500044408134
 30
0.0
 11
-127.14781755453
 21
180.9500044408134
 31
0.0
  0
LINE
  5
13E
330
1F
100
AcDbEntity
  8
0
  6
Continuous
 62
     7
100
AcDbLine
 10
-134.9302147520792
 20
180.9500044408134
 30
0.0
 11
-134.9302147520792
 21
181.4500044408134
 31
0.0
  0
LINE
  5
13F
330
1F
100
AcDbEntity
  8
0
  6
Continuous
 62
     7
100
AcDbLine
 10
-138.0466813157328
 20
180.9500044408134
 30
0.0
 11
-132.9026935924026
 21
180.9500044408134
 31
0.0
  0
LINE
  5
140
330
1F
100
AcDbEntity
  8
0
  6
Continuous
 62
     7
100
AcDbLine
 10
-125.0466813157328
 20
173.9500044408134
 30
0.0
 11
-125.0466813157328
 21
180.9500044408134
 31
0.0
  0
LINE
  5
141
330
1F
100
AcDbEntity
  8
0
  6
Continuous
 62
     7
100
AcDbLine
 10
-125.1202963948533
 20
180.9500044408134
 30
0.0
 11
-125.1202963948533
 21
181.4500044408134
 31
0.0
  0
LINE
  5
142
330
1F
100
AcDbEntity
  8
0
  6
Continuous
 62
     7
100
AcDbLine
 10
-125.1202963948533
 20
180.9500044408134
 30
0.0
 11
-125.0466813157328
 21
180.9500044408134
 31
0.0
  0
LINE
  5
143
330
1F
100
AcDbEntity
  8
0
  6
Continuous
 62
     7
100
AcDbLine
 10
-127.14781755453
 20
180.9500044408134
 30
0.0
 11
-125.1202963948533
 21
180.9500044408134
 31
0.0
  0
LINE
  5
144
330
1F
100
AcDbEntity
  8
0
  6
Continuous
 62
     7
100
AcDbLine
 10
-123.8466813157328
 20
173.9500044408134
 30
0.0
 11
-123.8466813157328
 21
166.9500044408134
 31
0.0
  0
LINE
  5
145
330
1F
100
AcDbEntity
  8
0
  6
Continuous
 62
     7
100
AcDbLine
 10
-61.85437992722186
 20
180.9500044408134
 30
0.0
 11
-61.85437992722186
 21
181.4500044408134
 31
0.0
  0
LINE
  5
146
330
1F
100
AcDbEntity
  8
0
  6
Continuous
 62
     7
100
AcDbLine
 10
-62.79982857105037
 20
181.4500044408134
 30
0.0
 11
-62.79982857105037
 21
180.9500044408134
 31
0.0
  0
LINE
  5
147
330
1F
100
AcDbEntity
  8
0
  6
Continuous
 62
     7
100
AcDbLine
 10
-65.48337133924306
 20
182.9500044408134
 30
0.0
 11
-65.48337133924309
 21
180.9500044408134
 31
0.0
  0
LINE
  5
148
330
1F
100
AcDbEntity
  8
0
  6
Continuous
 62
     7
100
AcDbLine
 10
-66.4288199830716
 20
182.9500044408134
 30
0.0
 11
-64.57613635801687
 21
182.9500044408134
 31
0.0
  0
LINE
  5
149
330
1F
100
AcDbEntity
  8
0
  6
Continuous
 62
     7
100
AcDbLine
 10
-66.4288199830716
 20
180.9500044408134
 30
0.0
 11
-62.79982857105037
 21
180.9500044408134
 31
0.0
  0
LINE
  5
14A
330
1F
100
AcDbEntity
  8
0
  6
Continuous
 62
     7
100
AcDbLine
 10
-67.37889192181478
 20
187.9500044408134
 30
0.0
 11
-64.57613635801687
 21
187.9500044408134
 31
0.0
  0
LINE
  5
14B
330
1F
100
AcDbEntity
  8
0
  6
Continuous
 62
     7
100
AcDbLine
 10
-66.4288199830716
 20
180.9500044408134
 30
0.0
 11
-66.4288199830716
 21
182.9500044408134
 31
0.0
  0
LINE
  5
14C
330
1F
100
AcDbEntity
  8
0
  6
Continuous
 62
     7
100
AcDbLine
 10
-67.37889192181478
 20
173.9500044408134
 30
0.0
 11
-67.37889192181478
 21
187.9500044408134
 31
0.0
  0
LINE
  5
14D
330
1F
100
AcDbEntity
  8
0
  6
Continuous
 62
     7
100
AcDbLine
 10
-68.57889192181477
 20
170.6000044408134
 30
0.0
 11
-68.5788919218148
 21
166.9500044408134
 31
0.0
  0
LINE
  5
14E
330
1F
100
AcDbEntity
  8
0
  6
Continuous
 62
     7
100
AcDbLine
 10
-68.14439259279405
 20
171.8500044408134
 30
0.0
 11
-68.57889192181477
 21
171.8500044408134
 31
0.0
  0
LINE
  5
14F
330
1F
100
AcDbEntity
  8
0
  6
Continuous
 62
     7
100
AcDbLine
 10
-68.14439259279405
 20
171.8500044408134
 30
0.0
 11
-68.14439259279405
 21
170.6000044408134
 31
0.0
  0
LINE
  5
150
330
1F
100
AcDbEntity
  8
0
  6
Continuous
 62
     7
100
AcDbLine
 10
-68.14439259279405
 20
170.6000044408134
 30
0.0
 11
-68.57889192181477
 21
170.6000044408134
 31
0.0
  0
LINE
  5
151
330
1F
100
AcDbEntity
  8
0
  6
Continuous
 62
     7
100
AcDbLine
 10
-68.5788919218148
 20
173.9500044408134
 30
0.0
 11
-68.57889192181477
 21
171.8500044408134
 31
0.0
  0
LINE
  5
152
330
1F
100
AcDbEntity
  8
0
  6
Continuous
 62
     7
100
AcDbLine
 10
-54.37889192181478
 20
173.9500044408134
 30
0.0
 11
-54.37889192181478
 21
180.9500044408134
 31
0.0
  0
LINE
  5
153
330
1F
100
AcDbEntity
  8
0
  6
Continuous
 62
     7
100
AcDbLine
 10
-53.1788919218148
 20
173.9500044408134
 30
0.0
 11
-53.1788919218148
 21
171.8500044408134
 31
0.0
  0
LINE
  5
154
330
1F
100
AcDbEntity
  8
0
  6
Continuous
 62
     7
100
AcDbLine
 10
-53.1788919218148
 20
170.6000044408134
 30
0.0
 11
-53.1788919218148
 21
166.9500044408134
 31
0.0
  0
LINE
  5
155
330
1F
100
AcDbEntity
  8
0
  6
Continuous
 62
     7
100
AcDbLine
 10
-59.37889192181478
 20
171.9500044408134
 30
0.0
 11
-59.37889192181478
 21
166.9500044408134
 31
0.0
  0
LINE
  5
156
330
1F
100
AcDbEntity
  8
0
  6
Continuous
 62
     7
100
AcDbLine
 10
-61.87889192181478
 20
170.4500044408134
 30
0.0
 11
-61.87889192181478
 21
166.9500044408134
 31
0.0
  0
LINE
  5
157
330
1F
100
AcDbEntity
  8
0
  6
Continuous
 62
     7
100
AcDbLine
 10
-61.87889192181478
 20
170.4500044408134
 30
0.0
 11
-63.37889192181478
 21
170.4500044408134
 31
0.0
  0
LINE
  5
158
330
1F
100
AcDbEntity
  8
0
  6
Continuous
 62
     7
100
AcDbLine
 10
-63.37889192181478
 20
171.9500044408134
 30
0.0
 11
-63.37889192181478
 21
170.4500044408134
 31
0.0
  0
LINE
  5
159
330
1F
100
AcDbEntity
  8
0
  6
Continuous
 62
     7
100
AcDbLine
 10
-59.37889192181478
 20
171.9500044408134
 30
0.0
 11
-63.37889192181478
 21
171.9500044408134
 31
0.0
  0
LINE
  5
15A
330
1F
100
AcDbEntity
  8
0
  6
Continuous
 62
     7
100
AcDbLine
 10
-53.61339125083552
 20
170.6000044408134
 30
0.0
 11
-53.1788919218148
 21
170.6000044408134
 31
0.0
  0
LINE
  5
15B
330
1F
100
AcDbEntity
  8
0
  6
Continuous
 62
     7
100
AcDbLine
 10
-53.61339125083552
 20
171.8500044408134
 30
0.0
 11
-53.61339125083552
 21
170.6000044408134
 31
0.0
  0
LINE
  5
15C
330
1F
100
AcDbEntity
  8
0
  6
Continuous
 62
     7
100
AcDbLine
 10
-53.1788919218148
 20
173.9500044408134
 30
0.0
 11
-68.5788919218148
 21
173.9500044408134
 31
0.0
  0
LINE
  5
15D
330
1F
100
AcDbEntity
  8
0
  6
Continuous
 62
     7
100
AcDbLine
 10
-53.1788919218148
 20
171.8500044408134
 30
0.0
 11
-53.61339125083552
 21
171.8500044408134
 31
0.0
  0
LINE
  5
15E
330
1F
100
AcDbEntity
  8
0
  6
Continuous
 62
     7
100
AcDbLine
 10
-62.79982857105037
 20
180.9500044408134
 30
0.0
 11
-54.37889192181478
 21
180.9500044408134
 31
0.0
  0
LINE
  5
15F
330
1F
100
AcDbEntity
  8
0
  6
Continuous
 62
     7
100
AcDbLine
 10
-60.87889192181478
 20
171.9500044408134
 30
0.0
 11
-60.87889192181478
 21
166.9500044408134
 31
0.0
  0
LINE
  5
160
330
1F
100
AcDbEntity
  8
0
  6
Continuous
 62
     7
100
AcDbLine
 10
-61.87889192181478
 20
166.9500044408134
 30
0.0
 11
-65.50382435375366
 21
166.9500044408134
 31
0.0
  0
LINE
  5
161
330
1F
100
AcDbEntity
  8
0
  6
Continuous
 62
     7
100
AcDbLine
 10
-66.11243756506661
 20
166.9500044408134
 30
0.0
 11
-65.50382435375366
 21
166.9500044408134
 31
0.0
  0
LINE
  5
162
330
1F
100
AcDbEntity
  8
0
  6
Continuous
 62
     7
100
AcDbLine
 10
-66.11243756506661
 20
166.9500044408134
 30
0.0
 11
-66.6788919218148
 21
166.9500044408134
 31
0.0
  0
LINE
  5
163
330
1F
100
AcDbEntity
  8
0
  6
Continuous
 62
     7
100
AcDbLine
 10
-68.5788919218148
 20
162.1000044408134
 30
0.0
 11
-68.5788919218148
 21
142.9500044408134
 31
0.0
  0
LINE
  5
164
330
1F
100
AcDbEntity
  8
0
  6
Continuous
 62
     7
100
AcDbLine
 10
-68.45054960028915
 20
166.9500044408134
 30
0.0
 11
-68.45054960028915
 21
162.1000044408134
 31
0.0
  0
LINE
  5
165
330
1F
100
AcDbEntity
  8
0
  6
Continuous
 62
     7
100
AcDbLine
 10
-68.1788919218148
 20
171.3000044408134
 30
0.0
 11
-68.1788919218148
 21
170.6000044408134
 31
0.0
  0
LINE
  5
166
330
1F
100
AcDbEntity
  8
0
  6
Continuous
 62
     7
100
AcDbLine
 10
-68.14439259279405
 20
170.6000044408134
 30
0.0
 11
-68.1788919218148
 21
170.6000044408134
 31
0.0
  0
LINE
  5
167
330
1F
100
AcDbEntity
  8
0
  6
Continuous
 62
     7
100
AcDbLine
 10
-68.14439259279405
 20
171.3000044408134
 30
0.0
 11
-68.1788919218148
 21
171.3000044408134
 31
0.0
  0
LINE
  5
168
330
1F
100
AcDbEntity
  8
0
  6
Continuous
 62
     7
100
AcDbLine
 10
-71.4788919218148
 20
164.9500044408134
 30
0.0
 11
-71.4788919218148
 21
162.1000044408134
 31
0.0
  0
LINE
  5
169
330
1F
100
AcDbEntity
  8
0
  6
Continuous
 62
     7
100
AcDbLine
 10
-68.45054960028915
 20
162.1000044408134
 30
0.0
 11
-71.4788919218148
 21
162.1000044408134
 31
0.0
  0
LINE
  5
16A
330
1F
100
AcDbEntity
  8
0
  6
Continuous
 62
     7
100
AcDbLine
 10
-66.6788919218148
 20
166.9500044408134
 30
0.0
 11
-68.45054960028915
 21
166.9500044408134
 31
0.0
  0
LINE
  5
16B
330
1F
100
AcDbEntity
  8
0
  6
Continuous
 62
     7
100
AcDbLine
 10
-68.45054960028915
 20
166.9500044408134
 30
0.0
 11
-69.4788919218148
 21
166.9500044408134
 31
0.0
  0
LINE
  5
16C
330
1F
100
AcDbEntity
  8
0
  6
Continuous
 62
     7
100
AcDbLine
 10
-56.25395948987591
 20
166.9500044408134
 30
0.0
 11
-55.64534627856298
 21
166.9500044408134
 31
0.0
  0
LINE
  5
16D
330
1F
100
AcDbEntity
  8
0
  6
Continuous
 62
     7
100
AcDbLine
 10
-56.25395948987591
 20
166.9500044408134
 30
0.0
 11
-60.87889192181478
 21
166.9500044408134
 31
0.0
  0
LINE
  5
16E
330
1F
100
AcDbEntity
  8
0
  6
Continuous
 62
     7
100
AcDbLine
 10
-53.57889192181477
 20
170.6000044408134
 30
0.0
 11
-53.57889192181477
 21
171.3000044408134
 31
0.0
  0
LINE
  5
16F
330
1F
100
AcDbEntity
  8
0
  6
Continuous
 62
     7
100
AcDbLine
 10
-53.61339125083552
 20
171.3000044408134
 30
0.0
 11
-53.57889192181477
 21
171.3000044408134
 31
0.0
  0
LINE
  5
170
330
1F
100
AcDbEntity
  8
0
  6
Continuous
 62
     7
100
AcDbLine
 10
-55.07889192181477
 20
166.9500044408134
 30
0.0
 11
-55.64534627856298
 21
166.9500044408134
 31
0.0
  0
LINE
  5
171
330
1F
100
AcDbEntity
  8
0
  6
Continuous
 62
     7
100
AcDbLine
 10
-53.1788919218148
 20
166.9500044408134
 30
0.0
 11
-55.07889192181477
 21
166.9500044408134
 31
0.0
  0
LINE
  5
172
330
1F
100
AcDbEntity
  8
0
  6
Continuous
 62
     7
100
AcDbLine
 10
-53.1788919218148
 20
166.9500044408134
 30
0.0
 11
-53.1788919218148
 21
142.9500044408134
 31
0.0
  0
LINE
  5
173
330
1F
100
AcDbEntity
  8
0
  6
Continuous
 62
     7
100
AcDbLine
 10
-53.1788919218148
 20
142.9500044408134
 30
0.0
 11
-68.5788919218148
 21
142.9500044408134
 31
0.0
  0
LINE
  5
174
330
1F
100
AcDbEntity
  8
0
  6
Continuous
 62
     7
100
AcDbLine
 10
-61.87889192181478
 20
170.4500044408134
 30
0.0
 11
-61.87889192181478
 21
166.9500044408134
 31
0.0
  0
LINE
  5
175
330
1F
100
AcDbEntity
  8
0
  6
Continuous
 62
     7
100
AcDbLine
 10
-61.87889192181478
 20
170.4500044408134
 30
0.0
 11
-63.37889192181478
 21
170.4500044408134
 31
0.0
  0
LINE
  5
176
330
1F
100
AcDbEntity
  8
0
  6
Continuous
 62
     7
100
AcDbLine
 10
-63.37889192181478
 20
171.9500044408134
 30
0.0
 11
-63.37889192181478
 21
170.4500044408134
 31
0.0
  0
LINE
  5
177
330
1F
100
AcDbEntity
  8
0
  6
Continuous
 62
     7
100
AcDbLine
 10
-60.87889192181478
 20
171.9500044408134
 30
0.0
 11
-63.37889192181478
 21
171.9500044408134
 31
0.0
  0
LINE
  5
178
330
1F
100
AcDbEntity
  8
0
  6
Continuous
 62
     7
100
AcDbLine
 10
-53.61339125083552
 20
170.6000044408134
 30
0.0
 11
-53.57889192181477
 21
170.6000044408134
 31
0.0
  0
LINE
  5
179
330
1F
100
AcDbEntity
  8
0
  6
Continuous
 62
     7
100
AcDbLine
 10
-49.39302203577631
 20
268.9106755325671
 30
0.0
 11
-55.0498762852687
 21
271.7391026573133
 31
0.0
  0
LINE
  5
17A
330
1F
100
AcDbEntity
  8
0
  6
Continuous
 62
     7
100
AcDbLine
 10
-47.76547020078834
 20
268.0739652504908
 30
0.0
 11
-48.586164191205
 21
267.1949134233551
 31
0.0
  0
LINE
  5
17B
330
1F
100
AcDbEntity
  8
0
  6
Continuous
 62
     7
100
AcDbLine
 10
-49.29041599277861
 20
269.3072436694636
 30
0.0
 11
-48.52138833431167
 21
270.1309552796218
 31
0.0
  0
LINE
  5
17C
330
1F
100
AcDbEntity
  8
0
  6
Continuous
 62
     7
100
AcDbLine
 10
-48.586164191205
 20
267.1949134233551
 30
0.0
 11
-49.39302203577631
 21
268.9106755325671
 31
0.0
  0
LINE
  5
17D
330
1F
100
AcDbEntity
  8
0
  6
Continuous
 62
     7
100
AcDbLine
 10
-49.40527181079486
 20
270.5728970178634
 30
0.0
 11
-48.52138833431167
 21
270.1309552796218
 31
0.0
  0
LINE
  5
17E
330
1F
100
AcDbEntity
  8
0
  6
Continuous
 62
     7
100
AcDbLine
 10
-45.6040825226514
 20
280.7545567677092
 30
0.0
 11
-46.56536709573508
 21
279.7249172550114
 31
0.0
  0
LINE
  5
17F
330
1F
100
AcDbEntity
  8
0
  6
Continuous
 62
     7
100
AcDbLine
 10
-46.76593924198639
 20
282.0025618629173
 30
0.0
 11
-47.64982271846958
 21
282.4445036011589
 31
0.0
  0
LINE
  5
180
330
1F
100
AcDbEntity
  8
0
  6
Continuous
 62
     7
100
AcDbLine
 10
-46.17125272348525
 20
279.5278600688864
 30
0.0
 11
-46.56536709573508
 21
279.7249172550114
 31
0.0
  0
LINE
  5
181
330
1F
100
AcDbEntity
  8
0
  6
Continuous
 62
     7
100
AcDbLine
 10
-50.60295745523617
 20
277.0401988336624
 30
0.0
 11
-48.9144472998439
 21
276.1959437559663
 31
0.0
  0
LINE
  5
182
330
1F
100
AcDbEntity
  8
0
  6
Continuous
 62
     7
100
AcDbLine
 10
-50.68774967450216
 20
277.2205072708319
 30
0.0
 11
-50.60295745523617
 21
277.0401988336624
 31
0.0
  0
LINE
  5
183
330
1F
100
AcDbEntity
  8
0
  6
Continuous
 62
     7
100
AcDbLine
 10
-49.59967969694641
 20
278.8013608036304
 30
0.0
 11
-47.84682331310563
 21
277.92493261171
 31
0.0
  0
LINE
  5
184
330
1F
100
AcDbEntity
  8
0
  6
Continuous
 62
     7
100
AcDbLine
 10
-53.29435910732086
 20
272.5174406661265
 30
0.0
 11
-53.7750013938627
 21
272.0026209097775
 31
0.0
  0
LINE
  5
185
330
1F
100
AcDbEntity
  8
0
  6
Continuous
 62
     7
100
AcDbLine
 10
-52.33307453423717
 20
273.5470801788243
 30
0.0
 11
-49.7959290416605
 21
272.278507432536
 31
0.0
  0
LINE
  5
186
330
1F
100
AcDbEntity
  8
0
  6
Continuous
 62
     7
100
AcDbLine
 10
-52.33307453423717
 20
273.5470801788243
 30
0.0
 11
-50.62164048140214
 21
272.5135508116896
 31
0.0
  0
LINE
  5
187
330
1F
100
AcDbEntity
  8
0
  6
Continuous
 62
     7
100
AcDbLine
 10
-49.78429098784919
 20
272.0948760649131
 30
0.0
 11
-50.62164048140214
 21
272.5135508116896
 31
0.0
  0
LINE
  5
188
330
1F
100
AcDbEntity
  8
0
  6
Continuous
 62
     7
100
AcDbLine
 10
-50.62164048140214
 20
272.5135508116896
 30
0.0
 11
-51.05251955869352
 21
272.052032822536
 31
0.0
  0
LINE
  5
189
330
1F
100
AcDbEntity
  8
0
  6
Continuous
 62
     7
100
AcDbLine
 10
-54.17824258380405
 20
272.9593824043681
 30
0.0
 11
-54.947270242271
 21
272.1356707942098
 31
0.0
  0
LINE
  5
18A
330
1F
100
AcDbEntity
  8
0
  6
Continuous
 62
     7
100
AcDbLine
 10
-53.29435910732086
 20
272.5174406661265
 30
0.0
 11
-54.17824258380405
 21
272.9593824043681
 31
0.0
  0
LINE
  5
18B
330
1F
100
AcDbEntity
  8
0
  6
Continuous
 62
     7
100
AcDbLine
 10
-55.0498762852687
 20
271.7391026573133
 30
0.0
 11
-54.24301844069737
 21
270.0233405481012
 31
0.0
  0
LINE
  5
18C
330
1F
100
AcDbEntity
  8
0
  6
Continuous
 62
     7
100
AcDbLine
 10
-54.24301844069737
 20
270.0233405481012
 30
0.0
 11
-48.586164191205
 21
267.1949134233551
 31
0.0
  0
LINE
  5
18D
330
1F
100
AcDbEntity
  8
0
  6
Continuous
 62
     7
100
AcDbLine
 10
-53.7750013938627
 20
272.0026209097775
 30
0.0
 11
-49.88591409733668
 21
270.0580772615145
 31
0.0
  0
LINE
  5
18E
330
1F
100
AcDbEntity
  8
0
  6
Continuous
 62
     7
100
AcDbLine
 10
-49.88591409733668
 20
270.0580772615145
 30
0.0
 11
-49.40527181079486
 21
270.5728970178634
 31
0.0
  0
LINE
  5
18F
330
1F
100
AcDbEntity
  8
0
  6
Continuous
 62
     7
100
AcDbLine
 10
-45.7807613499389
 20
281.9539910016845
 30
0.0
 11
-46.15286698076881
 21
281.5554257160993
 31
0.0
  0
LINE
  5
190
330
1F
100
AcDbEntity
  8
0
  6
Continuous
 62
     7
100
AcDbLine
 10
-40.80077337910136
 20
278.4005670499529
 30
0.0
 11
-37.41349853322127
 21
282.0287039402574
 31
0.0
  0
LINE
  5
191
330
1F
100
AcDbEntity
  8
0
  6
Continuous
 62
     7
100
AcDbLine
 10
-36.97385914677295
 20
277.244061972988
 30
0.0
 11
-35.57764230558887
 21
278.7395608795872
 31
0.0
  0
LINE
  5
192
330
1F
100
AcDbEntity
  8
0
  6
Continuous
 62
     7
100
AcDbLine
 10
-41.9929684689772
 20
279.6160764764127
 30
0.0
 11
-42.87685194546037
 21
280.0580182146543
 31
0.0
  0
LINE
  5
193
330
1F
100
AcDbEntity
  8
0
  6
Continuous
 62
     7
100
AcDbLine
 10
-37.18968358295226
 20
282.1063918632005
 30
0.0
 11
-40.58993303895608
 21
283.8065165912025
 31
0.0
  0
LINE
  5
194
330
1F
100
AcDbEntity
  8
0
  6
Continuous
 62
     7
100
AcDbLine
 10
-37.1315907469855
 20
282.0439916084401
 30
0.0
 11
-35.57764230558887
 21
278.7395608795872
 31
0.0
  0
LINE
  5
195
330
1F
100
AcDbEntity
  8
0
  6
Continuous
 62
     7
100
AcDbLine
 10
-45.03460707534562
 20
280.7604768828943
 30
0.0
 11
-43.54733733749774
 21
282.3535032675949
 31
0.0
  0
LINE
  5
196
330
1F
100
AcDbEntity
  8
0
  6
Continuous
 62
     7
100
AcDbLine
 10
-44.60821522781252
 20
281.1884336944615
 30
0.0
 11
-43.25060452740561
 21
282.642581258191
 31
0.0
  0
LINE
  5
197
330
1F
100
AcDbEntity
  8
0
  6
Continuous
 62
     7
100
AcDbLine
 10
-44.46892165039638
 20
280.4776341704197
 30
0.0
 11
-44.67810701750746
 21
280.9224613839191
 31
0.0
  0
LINE
  5
198
330
1F
100
AcDbEntity
  8
0
  6
Continuous
 62
     7
100
AcDbLine
 10
-45.1679962664641
 20
280.6173609656988
 30
0.0
 11
-45.70590149617833
 21
281.7612023718402
 31
0.0
  0
LINE
  5
199
330
1F
100
AcDbEntity
  8
0
  6
Continuous
 62
     7
100
AcDbLine
 10
-45.03460707534562
 20
280.7604768828943
 30
0.0
 11
-45.24379244245671
 21
281.2053040963938
 31
0.0
  0
LINE
  5
19A
330
1F
100
AcDbEntity
  8
0
  6
Continuous
 62
     7
100
AcDbLine
 10
-43.25060452740561
 20
282.642581258191
 30
0.0
 11
-42.29601037280376
 21
282.1652841808901
 31
0.0
  0
LINE
  5
19B
330
1F
100
AcDbEntity
  8
0
  6
Continuous
 62
     7
100
AcDbLine
 10
-44.77088410695669
 20
283.4027210479666
 30
0.0
 11
-43.81628995235485
 21
282.9254239706656
 31
0.0
  0
LINE
  5
19C
330
1F
100
AcDbEntity
  8
0
  6
Continuous
 62
     7
100
AcDbLine
 10
-44.2235009705079
 20
283.1290294797421
 30
0.0
 11
-43.98924638645494
 21
283.3799414183347
 31
0.0
  0
LINE
  5
19D
330
1F
100
AcDbEntity
  8
0
  6
Continuous
 62
     7
100
AcDbLine
 10
-43.30360484671022
 20
283.4745650441045
 30
0.0
 11
-44.25819900131205
 21
283.9518621214054
 31
0.0
  0
LINE
  5
19E
330
1F
100
AcDbEntity
  8
0
  6
Continuous
 62
     7
100
AcDbLine
 10
-44.25819900131205
 20
283.9518621214054
 30
0.0
 11
-43.98924638645494
 21
283.3799414183347
 31
0.0
  0
LINE
  5
19F
330
1F
100
AcDbEntity
  8
0
  6
Continuous
 62
     7
100
AcDbLine
 10
-44.25819900131205
 20
283.9518621214054
 30
0.0
 11
-44.77088410695669
 21
283.4027210479666
 31
0.0
  0
LINE
  5
1A0
330
1F
100
AcDbEntity
  8
0
  6
Continuous
 62
     7
100
AcDbLine
 10
-43.54733733749774
 20
282.3535032675949
 30
0.0
 11
-43.81628995235485
 21
282.9254239706656
 31
0.0
  0
LINE
  5
1A1
330
1F
100
AcDbEntity
  8
0
  6
Continuous
 62
     7
100
AcDbLine
 10
-43.81628995235485
 20
282.9254239706656
 30
0.0
 11
-45.17390065276177
 21
281.4712764069361
 31
0.0
  0
LINE
  5
1A2
330
1F
100
AcDbEntity
  8
0
  6
Continuous
 62
     7
100
AcDbLine
 10
-43.98924638645494
 20
283.3799414183347
 30
0.0
 11
-43.0346522318531
 21
282.9026443410338
 31
0.0
  0
LINE
  5
1A3
330
1F
100
AcDbEntity
  8
0
  6
Continuous
 62
     7
100
AcDbLine
 10
-43.30360484671022
 20
283.4745650441045
 30
0.0
 11
-43.0346522318531
 21
282.9026443410338
 31
0.0
  0
LINE
  5
1A4
330
1F
100
AcDbEntity
  8
0
  6
Continuous
 62
     7
100
AcDbLine
 10
-41.94599414630329
 20
284.9287126078339
 30
0.0
 11
-43.30360484671022
 21
283.4745650441045
 31
0.0
  0
LINE
  5
1A5
330
1F
100
AcDbEntity
  8
0
  6
Continuous
 62
     7
100
AcDbLine
 10
-40.19086815273124
 20
282.9579155451713
 30
0.0
 11
-40.72877338244544
 21
284.1017569513127
 31
0.0
  0
LINE
  5
1A6
330
1F
100
AcDbEntity
  8
0
  6
Continuous
 62
     7
100
AcDbLine
 10
-42.29601037280376
 20
282.1652841808901
 30
0.0
 11
-41.78332526715914
 21
282.7144252543289
 31
0.0
  0
LINE
  5
1A7
330
1F
100
AcDbEntity
  8
0
  6
Continuous
 62
     7
100
AcDbLine
 10
-42.46896680690387
 20
282.6198016285591
 30
0.0
 11
-42.73791942176098
 21
283.1917223316299
 31
0.0
  0
LINE
  5
1A8
330
1F
100
AcDbEntity
  8
0
  6
Continuous
 62
     7
100
AcDbLine
 10
-43.0346522318531
 20
282.9026443410338
 30
0.0
 11
-41.54738249400523
 21
284.4956707257343
 31
0.0
  0
LINE
  5
1A9
330
1F
100
AcDbEntity
  8
0
  6
Continuous
 62
     7
100
AcDbLine
 10
-42.73791942176098
 20
283.1917223316299
 30
0.0
 11
-41.38030872135406
 21
284.6458698953593
 31
0.0
  0
LINE
  5
1AA
330
1F
100
AcDbEntity
  8
0
  6
Continuous
 62
     7
100
AcDbLine
 10
-41.78332526715914
 20
282.7144252543289
 30
0.0
 11
-42.73791942176098
 21
283.1917223316299
 31
0.0
  0
LINE
  5
1AB
330
1F
100
AcDbEntity
  8
0
  6
Continuous
 62
     7
100
AcDbLine
 10
-42.46896680690387
 20
282.6198016285591
 30
0.0
 11
-42.0617557887508
 21
282.4161961194826
 31
0.0
  0
LINE
  5
1AC
330
1F
100
AcDbEntity
  8
0
  6
Continuous
 62
     7
100
AcDbLine
 10
-41.54738249400523
 20
284.4956707257343
 30
0.0
 11
-41.75656786111631
 21
284.9404979392338
 31
0.0
  0
LINE
  5
1AD
330
1F
100
AcDbEntity
  8
0
  6
Continuous
 62
     7
100
AcDbLine
 10
-44.94019528722409
 20
280.1418049954752
 30
0.0
 11
-45.12097830905572
 21
280.5262353643866
 31
0.0
  0
LINE
  5
1AE
330
1F
100
AcDbEntity
  8
0
  6
Continuous
 62
     7
100
AcDbLine
 10
-39.88926205341042
 20
282.3254149169111
 30
0.0
 11
-40.18809829214054
 21
282.9608823647674
 31
0.0
  0
LINE
  5
1AF
330
1F
100
AcDbEntity
  8
0
  6
Continuous
 62
     7
100
AcDbLine
 10
-46.9667546465251
 20
267.0206733481541
 30
0.0
 11
-47.40688858137295
 21
267.240740315578
 31
0.0
  0
LINE
  5
1B0
330
1F
100
AcDbEntity
  8
0
  6
Continuous
 62
     7
100
AcDbLine
 10
-47.92125751491071
 20
267.4296019829091
 30
0.0
 11
-48.22518205046539
 21
267.5815642506864
 31
0.0
  0
LINE
  5
1B1
330
1F
100
AcDbEntity
  8
0
  6
Continuous
 62
     7
100
AcDbLine
 10
-47.40688858137295
 20
267.240740315578
 30
0.0
 11
-47.30388057081478
 21
267.3510730107703
 31
0.0
  0
LINE
  5
1B2
330
1F
100
AcDbEntity
  8
0
  6
Continuous
 62
     7
100
AcDbLine
 10
-52.84329570052363
 20
271.8457887983681
 30
0.0
 11
-52.07426804205669
 21
272.6695004085264
 31
0.0
  0
LINE
  5
1B3
330
1F
100
AcDbEntity
  8
0
  6
Continuous
 62
     7
100
AcDbLine
 10
-51.15502922651416
 20
272.2098810007551
 30
0.0
 11
-52.07426804205669
 21
272.6695004085264
 31
0.0
  0
LINE
  5
1B4
330
1F
100
AcDbEntity
  8
0
  6
Continuous
 62
     7
100
AcDbLine
 10
-51.14177914668802
 20
272.0018850542767
 30
0.0
 11
-51.33403606130476
 21
271.7959571517371
 31
0.0
  0
LINE
  5
1B5
330
1F
100
AcDbEntity
  8
0
  6
Continuous
 62
     7
100
AcDbLine
 10
-51.14177914668802
 20
272.0018850542767
 30
0.0
 11
-50.95606674843894
 21
271.6069724953043
 31
0.0
  0
LINE
  5
1B6
330
1F
100
AcDbEntity
  8
0
  6
Continuous
 62
     7
100
AcDbLine
 10
-51.10221402606231
 20
272.1577068080126
 30
0.0
 11
-50.80853535846774
 21
271.5332068003186
 31
0.0
  0
LINE
  5
1B7
330
1F
100
AcDbEntity
  8
0
  6
Continuous
 62
     7
100
AcDbLine
 10
-49.91982249893164
 20
271.0888503705506
 30
0.0
 11
-51.33403606130476
 21
271.7959571517371
 31
0.0
  0
LINE
  5
1B8
330
1F
100
AcDbEntity
  8
0
  6
Continuous
 62
     7
100
AcDbLine
 10
-49.91982249893164
 20
271.0888503705506
 30
0.0
 11
-49.72756558431492
 21
271.2947782730902
 31
0.0
  0
LINE
  5
1B9
330
1F
100
AcDbEntity
  8
0
  6
Continuous
 62
     7
100
AcDbLine
 10
-35.3623615809646
 20
276.512605387117
 30
0.0
 11
-34.47847810448143
 21
276.0706636488754
 31
0.0
  0
LINE
  5
1BA
330
1F
100
AcDbEntity
  8
0
  6
Continuous
 62
     7
100
AcDbLine
 10
-35.3623615809646
 20
275.9435697662227
 30
0.0
 11
-35.3623615809646
 21
276.512605387117
 31
0.0
  0
LINE
  5
1BB
330
1F
100
AcDbEntity
  8
0
  6
Continuous
 62
     7
100
AcDbLine
 10
-38.96860616501598
 20
274.7094830950913
 30
0.0
 11
-38.08472268853282
 21
274.2675413568497
 31
0.0
  0
LINE
  5
1BC
330
1F
100
AcDbEntity
  8
0
  6
Continuous
 62
     7
100
AcDbLine
 10
-38.00449298450234
 20
277.0056615714535
 30
0.0
 11
-40.69326721103816
 21
278.3500486847215
 31
0.0
  0
LINE
  5
1BD
330
1F
100
AcDbEntity
  8
0
  6
Continuous
 62
     7
100
AcDbLine
 10
-42.57660652023643
 20
267.9831235489954
 30
0.0
 11
-39.04107261430372
 21
266.2153565960291
 31
0.0
  0
LINE
  5
1BE
330
1F
100
AcDbEntity
  8
0
  6
Continuous
 62
     7
100
AcDbLine
 10
-41.57414531178205
 20
265.2586304719817
 30
0.0
 11
-39.09927157762914
 21
264.0211936049053
 31
0.0
  0
LINE
  5
1BF
330
1F
100
AcDbEntity
  8
0
  6
Continuous
 62
     7
100
AcDbLine
 10
-42.38595182694246
 20
264.6143492805047
 30
0.0
 11
-41.32529165516263
 21
264.0840191946147
 31
0.0
  0
LINE
  5
1C0
330
1F
100
AcDbEntity
  8
0
  6
Continuous
 62
     7
100
AcDbLine
 10
-35.20686342813238
 20
276.9484875797684
 30
0.0
 11
-30.25711595982654
 21
274.4736138456155
 31
0.0
  0
LINE
  5
1C1
330
1F
100
AcDbEntity
  8
0
  6
Continuous
 62
     7
100
AcDbLine
 10
-42.09395279883174
 20
263.1743088383697
 30
0.0
 11
-37.14420533052591
 21
260.6994351042168
 31
0.0
  0
LINE
  5
1C2
330
1F
100
AcDbEntity
  8
0
  6
Continuous
 62
     7
100
AcDbLine
 10
-43.8182697260018
 20
265.3781080884546
 30
0.0
 11
-46.50704395253761
 21
266.7224952017226
 31
0.0
  0
LINE
  5
1C3
330
1F
100
AcDbEntity
  8
0
  6
Continuous
 62
     7
100
AcDbLine
 10
-37.14420533052591
 20
260.6994351042168
 30
0.0
 11
-20.17364258204876
 21
252.2141537299782
 31
0.0
  0
LINE
  5
1C4
330
1F
100
AcDbEntity
  8
0
  6
Continuous
 62
     7
100
AcDbLine
 10
-30.25711595982654
 20
274.4736138456155
 30
0.0
 11
-13.2865532113494
 21
265.9883324713769
 31
0.0
  0
LINE
  5
1C5
330
1F
100
AcDbEntity
  8
0
  6
Continuous
 62
     7
100
AcDbLine
 10
-42.11523134129615
 20
266.9147730327889
 30
0.0
 11
-42.68091676624539
 21
266.6319303203143
 31
0.0
  0
LINE
  5
1C6
330
1F
100
AcDbEntity
  8
0
  6
Continuous
 62
     7
100
AcDbLine
 10
-31.26114225008266
 20
256.1969465035931
 30
0.0
 11
-29.70018518968061
 21
256.9774250337941
 31
0.0
  0
LINE
  5
1C7
330
1F
100
AcDbEntity
  8
0
  6
Continuous
 62
     7
100
AcDbLine
 10
-31.26114225008266
 20
257.7579035639951
 30
0.0
 11
-31.26114225008266
 21
256.1969465035931
 31
0.0
  0
LINE
  5
1C8
330
1F
100
AcDbEntity
  8
0
  6
Continuous
 62
     7
100
AcDbLine
 10
-33.27639657646432
 20
257.2045736667839
 30
0.0
 11
-31.26114225008266
 21
256.1969465035931
 31
0.0
  0
LINE
  5
1C9
330
1F
100
AcDbEntity
  8
0
  6
Continuous
 62
     7
100
AcDbLine
 10
-42.68091676624539
 20
266.6319303203143
 30
0.0
 11
-39.14538286031265
 21
264.8641633673479
 31
0.0
  0
LINE
  5
1CA
330
1F
100
AcDbEntity
  8
0
  6
Continuous
 62
     7
100
AcDbLine
 10
-42.11523134129615
 20
266.9147730327889
 30
0.0
 11
-39.12701276140092
 21
265.4206637428413
 31
0.0
  0
LINE
  5
1CB
330
1F
100
AcDbEntity
  8
0
  6
Continuous
 62
     7
100
AcDbLine
 10
-41.57414531178205
 20
265.2586304719817
 30
0.0
 11
-39.09927157762914
 21
264.0211936049053
 31
0.0
  0
LINE
  5
1CC
330
1F
100
AcDbEntity
  8
0
  6
Continuous
 62
     7
100
AcDbLine
 10
-42.38595182694246
 20
264.6143492805047
 30
0.0
 11
-41.32529165516263
 21
264.0840191946147
 31
0.0
  0
LINE
  5
1CD
330
1F
100
AcDbEntity
  8
1
  6
Continuous
 62
     7
100
AcDbLine
 10
-63.35436797852989
 20
154.9979642608809
 30
0.0
 11
-60.87889192181481
 21
156.4261235243702
 31
0.0
  0
LINE
  5
1CE
330
1F
100
AcDbEntity
  8
1
  6
Continuous
 62
     7
100
AcDbLine
 10
-60.87889192181481
 20
156.4261235243702
 30
0.0
 11
-58.4034158650999
 21
154.9979642608809
 31
0.0
  0
LINE
  5
1CF
330
1F
100
AcDbEntity
  8
1
  6
Continuous
 62
     7
100
AcDbLine
 10
-58.4034158650999
 20
154.9130422557469
 30
0.0
 11
-60.87889192181481
 21
153.4848829922574
 31
0.0
  0
LINE
  5
1D0
330
1F
100
AcDbEntity
  8
1
  6
Continuous
 62
     7
100
AcDbLine
 10
-60.87889192181481
 20
153.4848829922574
 30
0.0
 11
-63.35436797852989
 21
154.9130422557469
 31
0.0
  0
LINE
  5
1D1
330
1F
100
AcDbEntity
  8
1
  6
Continuous
 62
     7
100
AcDbLine
 10
-60.09210718067041
 20
154.9500044408134
 30
0.0
 11
-59.60450868467231
 21
154.9500044408134
 31
0.0
  0
LINE
  5
1D2
330
1F
100
AcDbEntity
  8
1
  6
Continuous
 62
     7
100
AcDbLine
 10
-60.09210718067041
 20
155.6666030939919
 30
0.0
 11
-60.09210718067041
 21
154.2444034226357
 31
0.0
  0
LINE
  5
1D3
330
1F
100
AcDbEntity
  8
1
  6
Continuous
 62
     7
100
AcDbLine
 10
-60.09210718067041
 20
155.6666030939919
 30
0.0
 11
-59.61747370383583
 21
155.3927760881259
 31
0.0
  0
LINE
  5
1D4
330
1F
100
AcDbEntity
  8
1
  6
Continuous
 62
     7
100
AcDbLine
 10
-60.09210718067041
 20
154.2444034226357
 30
0.0
 11
-59.61747370383583
 21
154.5182304285017
 31
0.0
  0
LINE
  5
1D5
330
1F
100
AcDbEntity
  8
1
  6
Continuous
 62
     7
100
AcDbLine
 10
-61.66567666295933
 20
154.2444034226357
 30
0.0
 11
-60.89201126775132
 21
153.7980580023234
 31
0.0
  0
LINE
  5
1D6
330
1F
100
AcDbEntity
  8
1
  6
Continuous
 62
     7
100
AcDbLine
 10
-62.05032698085248
 20
154.4663170675738
 30
0.0
 11
-62.05032698085248
 21
155.4514806969791
 31
0.0
  0
LINE
  5
1D7
330
1F
100
AcDbEntity
  8
1
  6
Continuous
 62
     7
100
AcDbLine
 10
-61.66567666295933
 20
155.6733943419175
 30
0.0
 11
-61.66567666295933
 21
154.2444034226357
 31
0.0
  0
LINE
  5
1D8
330
1F
100
AcDbEntity
  8
1
  6
Continuous
 62
     7
100
AcDbLine
 10
-61.2610445103708
 20
154.4896782608323
 30
0.0
 11
-61.2610445103708
 21
155.8134936600773
 31
0.0
  0
LINE
  5
1D9
330
1F
100
AcDbEntity
  8
1
  6
Continuous
 62
     7
100
AcDbLine
 10
-60.48175295723743
 20
154.0196077823086
 30
0.0
 11
-60.48175295723743
 21
155.8394508247682
 31
0.0
  0
LINE
  5
1DA
330
1F
100
AcDbEntity
  8
1
  6
Continuous
 62
     7
100
AcDbLine
 10
-61.2610445103708
 20
155.8134936600773
 30
0.0
 11
-60.87889192181481
 21
155.1515859604546
 31
0.0
  0
LINE
  5
1DB
330
1F
100
AcDbEntity
  8
1
  6
Continuous
 62
     7
100
AcDbLine
 10
-60.87889192181481
 20
155.1515859604546
 30
0.0
 11
-60.48175295723743
 21
155.8394508247682
 31
0.0
  0
LINE
  5
1DC
330
1F
100
AcDbEntity
  8
1
  6
Continuous
 62
     7
100
AcDbLine
 10
-189.0
 20
20.0
 30
0.0
 11
-189.0
 21
4.99999999999989
 31
0.0
  0
LINE
  5
1DD
330
1F
100
AcDbEntity
  8
1
  6
Continuous
 62
     7
100
AcDbLine
 10
-49.0
 20
20.0
 30
0.0
 11
-49.0
 21
5.0
 31
0.0
  0
LINE
  5
1DE
330
1F
100
AcDbEntity
  8
1
  6
Continuous
 62
     7
100
AcDbLine
 10
-31.6473986225146
 20
20.0
 30
0.0
 11
-31.6473986225146
 21
5.0
 31
0.0
  0
LINE
  5
1DF
330
1F
100
AcDbEntity
  8
1
  6
Continuous
 62
     7
100
AcDbLine
 10
-159.0
 20
20.0
 30
0.0
 11
-159.0
 21
5.0
 31
0.0
  0
LINE
  5
1E0
330
1F
100
AcDbEntity
  8
1
  6
Continuous
 62
     7
100
AcDbLine
 10
-189.0
 20
12.5
 30
0.0
 11
-159.0
 21
12.5
 31
0.0
  0
LINE
  5
1E1
330
1F
100
AcDbEntity
  8
1
  6
Continuous
 62
     7
100
AcDbLine
 10
-210.0000000000001
 20
148.4999999999998
 30
0.0
 11
-195.0000000000001
 21
148.4999999999998
 31
0.0
  0
LINE
  5
1E2
330
1F
100
AcDbEntity
  8
1
  6
Continuous
 62
     7
100
AcDbLine
 10
0.0
 20
0.0
 30
0.0
 11
0.0
 21
297.0000000000001
 31
0.0
  0
LINE
  5
1E3
330
1F
100
AcDbEntity
  8
1
  6
Continuous
 62
     7
100
AcDbLine
 10
-210.0000000000001
 20
0.0
 30
0.0
 11
0.0
 21
0.0
 31
0.0
  0
LINE
  5
1E4
330
1F
100
AcDbEntity
  8
1
  6
Continuous
 62
     7
100
AcDbLine
 10
-210.0000000000001
 20
297.0000000000001
 30
0.0
 11
-210.0000000000001
 21
0.0
 31
0.0
  0
LINE
  5
1E5
330
1F
100
AcDbEntity
  8
1
  6
Continuous
 62
     7
100
AcDbLine
 10
0.0
 20
297.0000000000001
 30
0.0
 11
-210.0000000000001
 21
297.0000000000001
 31
0.0
  0
LINE
  5
1E6
330
1F
100
AcDbEntity
  8
1
  6
Continuous
 62
     7
100
AcDbLine
 10
-5.0
 20
4.99999999999989
 30
0.0
 11
-5.0
 21
292.0000000000001
 31
0.0
  0
LINE
  5
1E7
330
1F
100
AcDbEntity
  8
1
  6
Continuous
 62
     7
100
AcDbLine
 10
-5.0
 20
292.0000000000001
 30
0.0
 11
-189.0
 21
292.0000000000001
 31
0.0
  0
LINE
  5
1E8
330
1F
100
AcDbEntity
  8
1
  6
Continuous
 62
     7
100
AcDbLine
 10
-189.0
 20
292.0000000000001
 30
0.0
 11
-189.0
 21
4.99999999999989
 31
0.0
  0
LINE
  5
1E9
102
{ACAD_REACTORS
330
2D4
102
}
330
1F
100
AcDbEntity
  8
1
  6
Continuous
 62
     7
100
AcDbLine
 10
-15.99036597792389
 20
10.07749983983257
 30
0.0
 11
-15.99036597792389
 21
14.92250016016737
 31
0.0
  0
LINE
  5
1EA
102
{ACAD_REACTORS
330
2D1
102
}
330
1F
100
AcDbEntity
  8
1
  6
Continuous
 62
     7
100
AcDbLine
 10
-17.32369931125729
 20
14.23205080756878
 30
0.0
 11
-18.1793617439599
 21
12.75
 31
0.0
  0
LINE
  5
1EB
102
{ACAD_REACTORS
330
2D1
102
}
330
1F
100
AcDbEntity
  8
1
  6
Continuous
 62
     7
100
AcDbLine
 10
-18.46803687855478
 20
12.75
 30
0.0
 11
-19.32369931125729
 21
14.23205080756878
 31
0.0
  0
LINE
  5
1EC
330
1F
100
AcDbEntity
  8
1
  6
Continuous
 62
     7
100
AcDbLine
 10
-26.74013458639891
 20
12.64436426434128
 30
0.0
 11
-18.32369931125729
 21
17.5
 31
0.0
  0
LINE
  5
1ED
330
1F
100
AcDbEntity
  8
1
  6
Continuous
 62
     7
100
AcDbLine
 10
-18.32369931125729
 20
17.5
 30
0.0
 11
-9.90726403611589
 21
12.64436426434128
 31
0.0
  0
LINE
  5
1EE
330
1F
100
AcDbEntity
  8
1
  6
Continuous
 62
     7
100
AcDbLine
 10
-9.90726403611589
 20
12.35563573565861
 30
0.0
 11
-18.32369931125729
 21
7.5
 31
0.0
  0
LINE
  5
1EF
330
1F
100
AcDbEntity
  8
1
  6
Continuous
 62
     7
100
AcDbLine
 10
-18.32369931125729
 20
7.5
 30
0.0
 11
-26.74013458639891
 21
12.35563573565861
 31
0.0
  0
LINE
  5
1F0
102
{ACAD_REACTORS
330
2D1
102
}
330
1F
100
AcDbEntity
  8
1
  6
Continuous
 62
     7
100
AcDbLine
 10
-19.49593229430059
 20
15.86370041827229
 30
0.0
 11
-18.32369931125729
 21
13.83333333333326
 31
0.0
  0
LINE
  5
1F1
102
{ACAD_REACTORS
330
2D1
102
}
330
1F
100
AcDbEntity
  8
1
  6
Continuous
 62
     7
100
AcDbLine
 10
-19.99036597792409
 20
15.73121731203457
 30
0.0
 11
-19.99036597792409
 21
10.84758507263291
 31
0.0
  0
LINE
  5
1F2
102
{ACAD_REACTORS
330
2D1
102
}
330
1F
100
AcDbEntity
  8
1
  6
Continuous
 62
     7
100
AcDbLine
 10
-19.32369931125729
 20
10.84758507263291
 30
0.0
 11
-19.32369931125729
 21
14.23205080756878
 31
0.0
  0
LINE
  5
1F3
102
{ACAD_REACTORS
330
2D1
102
}
330
1F
100
AcDbEntity
  8
1
  6
Continuous
 62
     7
100
AcDbLine
 10
-17.32369931125729
 20
14.23205080756878
 30
0.0
 11
-17.32369931125729
 21
9.3082690706018
 31
0.0
  0
LINE
  5
1F4
102
{ACAD_REACTORS
330
2D1
102
}
330
1F
100
AcDbEntity
  8
1
  6
Continuous
 62
     7
100
AcDbLine
 10
-16.65703264459069
 20
9.3082690706018
 30
0.0
 11
-16.65703264459069
 21
15.73121731203457
 31
0.0
  0
LINE
  5
1F5
102
{ACAD_REACTORS
330
2D1
102
}
330
1F
100
AcDbEntity
  8
1
  6
Continuous
 62
     7
100
AcDbLine
 10
-17.15146632821399
 20
15.86370041827229
 30
0.0
 11
-18.32369931125729
 21
13.83333333333326
 31
0.0
  0
LINE
  5
1F6
102
{ACAD_REACTORS
330
2D2
102
}
330
1F
100
AcDbEntity
  8
1
  6
Continuous
 62
     7
100
AcDbLine
 10
-21.32369931125729
 20
10.27002114803258
 30
0.0
 11
-21.32369931125729
 21
14.92250016016737
 31
0.0
  0
LINE
  5
1F7
102
{ACAD_REACTORS
330
2D2
102
}
330
1F
100
AcDbEntity
  8
1
  6
Continuous
 62
     7
100
AcDbLine
 10
-20.65703264459069
 20
14.92250016016737
 30
0.0
 11
-20.65703264459069
 21
10.2700211480327
 31
0.0
  0
LINE
  5
1F8
102
{ACAD_REACTORS
330
2D2
102
}
330
1F
100
AcDbEntity
  8
1
  6
Continuous
 62
     7
100
AcDbLine
 10
-20.65703264459069
 20
10.2700211480327
 30
0.0
 11
-18.4904584934275
 21
9.0200745223616
 31
0.0
  0
LINE
  5
1F9
102
{ACAD_REACTORS
330
2D2
102
}
330
1F
100
AcDbEntity
  8
1
  6
Continuous
 62
     7
100
AcDbLine
 10
-18.8236067957539
 20
8.44261746499581
 30
0.0
 11
-20.99018094691701
 21
9.69256409066691
 31
0.0
  0
LINE
  5
1FA
102
{ACAD_REACTORS
330
2D3
102
}
330
1F
100
AcDbEntity
  8
1
  6
Continuous
 62
     7
100
AcDbLine
 10
-21.99036597792409
 20
14.15326939093666
 30
0.0
 11
-21.99036597792409
 21
10.84673060906317
 31
0.0
  0
LINE
  5
1FB
102
{ACAD_REACTORS
330
2D3
102
}
330
1F
100
AcDbEntity
  8
1
  6
Continuous
 62
     7
100
AcDbLine
 10
-22.65703264459069
 20
10.84673060906317
 30
0.0
 11
-22.65703264459069
 21
14.15326939093666
 31
0.0
  0
LINE
  5
1FC
102
{ACAD_REACTORS
330
2D4
102
}
330
1F
100
AcDbEntity
  8
1
  6
Continuous
 62
     7
100
AcDbLine
 10
-15.4904584934275
 20
15.21122868885027
 30
0.0
 11
-14.15712516009418
 21
14.44199791961938
 31
0.0
  0
LINE
  5
1FD
102
{ACAD_REACTORS
330
2D4
102
}
330
1F
100
AcDbEntity
  8
1
  6
Continuous
 62
     7
100
AcDbLine
 10
-14.4902734624205
 20
13.86454086225376
 30
0.0
 11
-15.32369931125729
 21
14.345363467352
 31
0.0
  0
LINE
  5
1FE
102
{ACAD_REACTORS
330
2D4
102
}
330
1F
100
AcDbEntity
  8
1
  6
Continuous
 62
     7
100
AcDbLine
 10
-15.32369931125729
 20
14.345363467352
 30
0.0
 11
-15.32369931125729
 21
12.83333333333326
 31
0.0
  0
LINE
  5
1FF
102
{ACAD_REACTORS
330
2D4
102
}
330
1F
100
AcDbEntity
  8
1
  6
Continuous
 62
     7
100
AcDbLine
 10
-15.32369931125729
 20
12.83333333333326
 30
0.0
 11
-14.32369931125729
 21
12.83333333333326
 31
0.0
  0
LINE
  5
200
102
{ACAD_REACTORS
330
2D4
102
}
330
1F
100
AcDbEntity
  8
1
  6
Continuous
 62
     7
100
AcDbLine
 10
-14.32369931125729
 20
12.16666666666657
 30
0.0
 11
-15.32369931125729
 21
12.16666666666657
 31
0.0
  0
LINE
  5
201
102
{ACAD_REACTORS
330
2D4
102
}
330
1F
100
AcDbEntity
  8
1
  6
Continuous
 62
     7
100
AcDbLine
 10
-15.32369931125729
 20
12.16666666666657
 30
0.0
 11
-15.32369931125729
 21
10.654636532648
 31
0.0
  0
LINE
  5
202
102
{ACAD_REACTORS
330
2D4
102
}
330
1F
100
AcDbEntity
  8
1
  6
Continuous
 62
     7
100
AcDbLine
 10
-15.32369931125729
 20
10.654636532648
 30
0.0
 11
-14.4902734624205
 21
11.13545913774618
 31
0.0
  0
LINE
  5
203
102
{ACAD_REACTORS
330
2D4
102
}
330
1F
100
AcDbEntity
  8
1
  6
Continuous
 62
     7
100
AcDbLine
 10
-14.15712516009418
 20
10.55800208038028
 30
0.0
 11
-15.4904584934275
 21
9.78877131114967
 31
0.0
  0
LINE
  5
204
330
1F
100
AcDbEntity
  8
1
  6
Continuous
 62
     7
100
AcDbLine
 10
-189.0
 20
25.0
 30
0.0
 11
-5.0
 21
25.0
 31
0.0
  0
LINE
  5
205
330
1F
100
AcDbEntity
  8
1
  6
Continuous
 62
     7
100
AcDbLine
 10
-189.0
 20
30.0
 30
0.0
 11
-5.0
 21
30.0
 31
0.0
  0
LINE
  5
206
330
1F
100
AcDbEntity
  8
1
  6
Continuous
 62
     7
100
AcDbLine
 10
-189.0
 20
35.0
 30
0.0
 11
-5.0
 21
35.0
 31
0.0
  0
LINE
  5
207
330
1F
100
AcDbEntity
  8
1
  6
Continuous
 62
     7
100
AcDbLine
 10
-189.0
 20
40.0
 30
0.0
 11
-5.0
 21
40.0
 31
0.0
  0
LINE
  5
208
330
1F
100
AcDbEntity
  8
1
  6
Continuous
 62
     7
100
AcDbLine
 10
-182.0
 20
20.0
 30
0.0
 11
-182.0
 21
40.0
 31
0.0
  0
LINE
  5
209
330
1F
100
AcDbEntity
  8
1
  6
Continuous
 62
     7
100
AcDbLine
 10
-163.9999999999999
 20
20.0
 30
0.0
 11
-163.9999999999999
 21
40.0
 31
0.0
  0
LINE
  5
20A
330
1F
100
AcDbEntity
  8
1
  6
Continuous
 62
     7
100
AcDbLine
 10
-189.0
 20
4.99999999999989
 30
0.0
 11
-5.0
 21
4.99999999999989
 31
0.0
  0
LINE
  5
20B
330
1F
100
AcDbEntity
  8
1
  6
Continuous
 62
     7
100
AcDbLine
 10
-189.0
 20
20.0
 30
0.0
 11
-5.0
 21
20.0
 31
0.0
  0
ARC
  5
20C
330
1F
100
AcDbEntity
  8
0
  6
Continuous
 62
     7
100
AcDbCircle
 10
-131.5466813157328
 20
91.14533532781371
 30
0.0
 40
7.699999999999985
100
AcDbArc
 50
20.58469140280666
 51
79.52431830361
  0
ARC
  5
20D
330
1F
100
AcDbEntity
  8
0
  6
Continuous
 62
     7
100
AcDbCircle
 10
-131.5466813157328
 20
91.14533532781371
 30
0.0
 40
4.799999999999942
100
AcDbArc
 50
341.9660581572022
 51
6.38816646434768
  0
ARC
  5
20E
330
1F
100
AcDbEntity
  8
0
  6
Continuous
 62
     7
100
AcDbCircle
 10
-131.5466813157328
 20
91.14533532781371
 30
0.0
 40
7.700000000000018
100
AcDbArc
 50
100.4756816963899
 51
161.0540942014374
  0
ARC
  5
20F
330
1F
100
AcDbEntity
  8
0
  6
Continuous
 62
     7
100
AcDbCircle
 10
-131.5466813157328
 20
91.14533532781371
 30
0.0
 40
7.70000000000005
100
AcDbArc
 50
161.0540942014374
 51
168.0873526645544
  0
ARC
  5
210
330
1F
100
AcDbEntity
  8
0
  6
Continuous
 62
     7
100
AcDbCircle
 10
-131.5466813157328
 20
91.14533532781371
 30
0.0
 40
7.699999999999962
100
AcDbArc
 50
79.52431830361
 51
100.4756816963899
  0
ARC
  5
211
330
1F
100
AcDbEntity
  8
0
  6
Continuous
 62
     7
100
AcDbCircle
 10
-131.5466813157328
 20
91.14533532781371
 30
0.0
 40
7.700000000000021
100
AcDbArc
 50
283.5106941336969
 51
290.2829234234968
  0
ARC
  5
212
330
1F
100
AcDbEntity
  8
0
  6
Continuous
 62
     7
100
AcDbCircle
 10
-131.5466813157328
 20
91.14533532781371
 30
0.0
 40
7.700000000000102
100
AcDbArc
 50
180.0
 51
206.4893058663035
  0
ARC
  5
213
330
1F
100
AcDbEntity
  8
0
  6
Continuous
 62
     7
100
AcDbCircle
 10
-131.5466813157328
 20
91.14533532781371
 30
0.0
 40
7.700000000000067
100
AcDbArc
 50
173.1094990593091
 51
180.0
  0
ARC
  5
214
330
1F
100
AcDbEntity
  8
0
  6
Continuous
 62
     7
100
AcDbCircle
 10
-131.5466813157328
 20
91.14533532781371
 30
0.0
 40
6.500000000000078
100
AcDbArc
 50
176.8375868792148
 51
177.6331925773123
  0
ARC
  5
215
330
1F
100
AcDbEntity
  8
0
  6
Continuous
 62
     7
100
AcDbCircle
 10
-131.5466813157328
 20
91.14533532781371
 30
0.0
 40
4.800000000000018
100
AcDbArc
 50
6.38816646434768
 51
148.0339418427978
  0
ARC
  5
216
330
1F
100
AcDbEntity
  8
0
  6
Continuous
 62
     7
100
AcDbCircle
 10
-131.5466813157328
 20
91.14533532781371
 30
0.0
 40
6.500000000000028
100
AcDbArc
 50
32.79577249602725
 51
149.8616129137226
  0
ARC
  5
217
330
1F
100
AcDbEntity
  8
0
  6
Continuous
 62
     7
100
AcDbCircle
 10
-132.5685086957267
 20
88.95401943985061
 30
0.0
 40
6.000000000000092
100
AcDbArc
 50
155.0000000000004
 51
334.9999999999996
  0
ARC
  5
218
330
1F
100
AcDbEntity
  8
0
  6
Continuous
 62
     7
100
AcDbCircle
 10
-122.1706415333766
 20
84.4364277292571
 30
0.0
 40
0.3000000000000409
100
AcDbArc
 50
244.999999999983
 51
335.0000000000002
  0
ARC
  5
219
330
1F
100
AcDbEntity
  8
0
  6
Continuous
 62
     7
100
AcDbCircle
 10
-138.9671392838684
 20
92.26876326049461
 30
0.0
 40
0.2999999999999989
100
AcDbArc
 50
155.0000000000002
 51
244.9999999999805
  0
ARC
  5
21A
330
1F
100
AcDbEntity
  8
0
  6
Continuous
 62
     7
100
AcDbCircle
 10
-130.5022280981608
 20
93.4855583750338
 30
0.0
 40
3.499999999999975
100
AcDbArc
 50
191.103649467235
 51
298.8963505327642
  0
ARC
  5
21B
330
1F
100
AcDbEntity
  8
0
  6
Continuous
 62
     7
100
AcDbCircle
 10
-128.7142896064928
 20
90.2462257354286
 30
0.0
 40
0.1999999999999701
100
AcDbArc
 50
65.00000000000529
 51
118.8963505327766
  0
ARC
  5
21C
330
1F
100
AcDbEntity
  8
0
  6
Continuous
 62
     7
100
AcDbCircle
 10
-134.1329655754702
 20
92.77299583682321
 30
0.0
 40
0.2000000000000404
100
AcDbArc
 50
11.10364946722603
 51
64.99999999997969
  0
ARC
  5
21D
330
1F
100
AcDbEntity
  8
0
  6
Continuous
 62
     7
100
AcDbCircle
 10
-131.5466813157328
 20
91.14533532781371
 30
0.0
 40
1.299999999999983
100
AcDbArc
 50
299.1363283947211
 51
0.0
  0
ARC
  5
21E
330
1F
100
AcDbEntity
  8
0
  6
Continuous
 62
     7
100
AcDbCircle
 10
-131.5466813157328
 20
91.14533532781371
 30
0.0
 40
2.049999999999945
100
AcDbArc
 50
327.8512883866954
 51
0.0
  0
ARC
  5
21F
330
1F
100
AcDbEntity
  8
0
  6
Continuous
 62
     7
100
AcDbCircle
 10
-131.5466813157328
 20
91.14533532781371
 30
0.0
 40
1.300000000000097
100
AcDbArc
 50
180.0
 51
192.7607815583662
  0
ARC
  5
220
330
1F
100
AcDbEntity
  8
0
  6
Continuous
 62
     7
100
AcDbCircle
 10
-131.5466813157328
 20
91.14533532781371
 30
0.0
 40
2.749999999999944
100
AcDbArc
 50
343.6136796727611
 51
0.0
  0
ARC
  5
221
330
1F
100
AcDbEntity
  8
0
  6
Continuous
 62
     7
100
AcDbCircle
 10
-131.5466813157328
 20
91.14533532781371
 30
0.0
 40
2.749999999999886
100
AcDbArc
 50
0.0
 51
148.2834302803319
  0
ARC
  5
222
330
1F
100
AcDbEntity
  8
0
  6
Continuous
 62
     7
100
AcDbCircle
 10
-131.5466813157328
 20
91.14533532781371
 30
0.0
 40
2.049999999999898
100
AcDbArc
 50
0.0
 51
164.0458215663998
  0
ARC
  5
223
330
1F
100
AcDbEntity
  8
0
  6
Continuous
 62
     7
100
AcDbCircle
 10
-131.5466813157328
 20
91.14533532781371
 30
0.0
 40
1.299999999999898
100
AcDbArc
 50
0.0
 51
180.0
  0
ARC
  5
224
330
1F
100
AcDbEntity
  8
0
  6
Continuous
 62
     7
100
AcDbCircle
 10
-131.5466813157328
 20
91.14533532781371
 30
0.0
 40
7.699999999999985
100
AcDbArc
 50
20.58469140280666
 51
79.52431830361
  0
ARC
  5
225
330
1F
100
AcDbEntity
  8
0
  6
Continuous
 62
     7
100
AcDbCircle
 10
-131.5466813157328
 20
91.14533532781371
 30
0.0
 40
7.700000000000018
100
AcDbArc
 50
100.4756816963899
 51
161.0540942014374
  0
ARC
  5
226
330
1F
100
AcDbEntity
  8
0
  6
Continuous
 62
     7
100
AcDbCircle
 10
-131.5466813157328
 20
91.14533532781371
 30
0.0
 40
7.70000000000005
100
AcDbArc
 50
161.0540942014374
 51
168.0873526645544
  0
ARC
  5
227
330
1F
100
AcDbEntity
  8
0
  6
Continuous
 62
     7
100
AcDbCircle
 10
-131.5466813157328
 20
91.14533532781371
 30
0.0
 40
7.700000000000021
100
AcDbArc
 50
283.5106941336969
 51
290.2829234234968
  0
ARC
  5
228
330
1F
100
AcDbEntity
  8
0
  6
Continuous
 62
     7
100
AcDbCircle
 10
-131.5466813157328
 20
91.14533532781371
 30
0.0
 40
7.700000000000102
100
AcDbArc
 50
180.0
 51
206.4893058663035
  0
ARC
  5
229
330
1F
100
AcDbEntity
  8
0
  6
Continuous
 62
     7
100
AcDbCircle
 10
-131.5466813157328
 20
91.14533532781371
 30
0.0
 40
7.700000000000067
100
AcDbArc
 50
173.1094990593091
 51
180.0
  0
ARC
  5
22A
330
1F
100
AcDbEntity
  8
0
  6
Continuous
 62
     7
100
AcDbCircle
 10
-131.5466813157328
 20
246.9546735538131
 30
0.0
 40
7.699999999999914
100
AcDbArc
 50
280.4756816963892
 51
168.7666561571134
  0
ARC
  5
22B
330
1F
100
AcDbEntity
  8
0
  6
Continuous
 62
     7
100
AcDbCircle
 10
-131.5466813157328
 20
246.9546735538131
 30
0.0
 40
7.699999999999942
100
AcDbArc
 50
198.9459057985628
 51
259.5243183036101
  0
ARC
  5
22C
330
1F
100
AcDbEntity
  8
0
  6
Continuous
 62
     7
100
AcDbCircle
 10
-131.5466813157328
 20
246.9546735538131
 30
0.0
 40
7.700000000000018
100
AcDbArc
 50
259.5243183036101
 51
280.4756816963892
  0
ARC
  5
22D
330
1F
100
AcDbEntity
  8
0
  6
Continuous
 62
     7
100
AcDbCircle
 10
-131.5466813157328
 20
246.9546735538131
 30
0.0
 40
7.699999999999949
100
AcDbArc
 50
187.4620876856187
 51
198.9459057985628
  0
ARC
  5
22E
330
1F
100
AcDbEntity
  8
0
  6
Continuous
 62
     7
100
AcDbCircle
 10
-131.5466813157328
 20
246.9546735538131
 30
0.0
 40
7.700000000000102
100
AcDbArc
 50
180.0
 51
187.4620876856187
  0
ARC
  5
22F
330
1F
100
AcDbEntity
  8
0
  6
Continuous
 62
     7
100
AcDbCircle
 10
-131.5466813157328
 20
246.9546735538131
 30
0.0
 40
7.700000000000006
100
AcDbArc
 50
168.7666561571134
 51
180.0
  0
ARC
  5
230
330
1F
100
AcDbEntity
  8
0
  6
Continuous
 62
     7
100
AcDbCircle
 10
-132.5685086957268
 20
249.1459894417763
 30
0.0
 40
5.999999999999968
100
AcDbArc
 50
61.95754446452169
 51
168.0424555354772
  0
ARC
  5
231
330
1F
100
AcDbEntity
  8
0
  6
Continuous
 62
     7
100
AcDbCircle
 10
-122.1706415333766
 20
253.6635811523697
 30
0.0
 40
0.2999999999999989
100
AcDbArc
 50
24.99999999999981
 51
115.0000000000079
  0
ARC
  5
232
330
1F
100
AcDbEntity
  8
0
  6
Continuous
 62
     7
100
AcDbCircle
 10
-138.9671392838684
 20
245.8312456211322
 30
0.0
 40
0.2999999999999144
100
AcDbArc
 50
138.2814481185927
 51
204.9999999999998
  0
ARC
  5
233
330
1F
100
AcDbEntity
  8
0
  6
Continuous
 62
     7
100
AcDbCircle
 10
-130.5022280981608
 20
244.614450506593
 30
0.0
 40
3.500000000000001
100
AcDbArc
 50
96.75191614520573
 51
131.3509739017001
  0
ARC
  5
234
330
1F
100
AcDbEntity
  8
0
  6
Continuous
 62
     7
100
AcDbCircle
 10
-131.5466813157328
 20
246.9546735538131
 30
0.0
 40
1.300000000000097
100
AcDbArc
 50
180.0
 51
0.0
  0
ARC
  5
235
330
1F
100
AcDbEntity
  8
0
  6
Continuous
 62
     7
100
AcDbCircle
 10
-131.5466813157328
 20
246.9546735538131
 30
0.0
 40
5.749999999999955
100
AcDbArc
 50
279.5098634001147
 51
279.977801204978
  0
ARC
  5
236
330
1F
100
AcDbEntity
  8
0
  6
Continuous
 62
     7
100
AcDbCircle
 10
-131.5466813157328
 20
246.9546735538131
 30
0.0
 40
5.749999999999992
100
AcDbArc
 50
259.9469765082231
 51
260.4901365998833
  0
ARC
  5
237
330
1F
100
AcDbEntity
  8
0
  6
Continuous
 62
     7
100
AcDbCircle
 10
-131.5466813157328
 20
246.9546735538131
 30
0.0
 40
4.750000000000114
100
AcDbArc
 50
180.0
 51
257.8009352367984
  0
ARC
  5
238
330
1F
100
AcDbEntity
  8
0
  6
Continuous
 62
     7
100
AcDbCircle
 10
-131.5466813157328
 20
246.9546735538131
 30
0.0
 40
5.750000000000114
100
AcDbArc
 50
180.0
 51
259.9469765082231
  0
ARC
  5
239
330
1F
100
AcDbEntity
  8
0
  6
Continuous
 62
     7
100
AcDbCircle
 10
-131.5466813157328
 20
246.9546735538131
 30
0.0
 40
3.999999999999943
100
AcDbArc
 50
255.4674927832474
 51
284.4225307811943
  0
ARC
  5
23A
330
1F
100
AcDbEntity
  8
0
  6
Continuous
 62
     7
100
AcDbCircle
 10
-131.5466813157328
 20
246.9546735538131
 30
0.0
 40
5.749999999999884
100
AcDbArc
 50
279.977801204978
 51
0.0
  0
ARC
  5
23B
330
1F
100
AcDbEntity
  8
0
  6
Continuous
 62
     7
100
AcDbCircle
 10
-131.5466813157104
 20
246.9546735538409
 30
0.0
 40
4.749999999977544
100
AcDbArc
 50
282.1073380806341
 51
359.9999999996647
  0
ARC
  5
23C
330
1F
100
AcDbEntity
  8
0
  6
Continuous
 62
     7
100
AcDbCircle
 10
-131.5466813157328
 20
246.9546735538131
 30
0.0
 40
4.749999999999901
100
AcDbArc
 50
0.0
 51
77.80093523679962
  0
ARC
  5
23D
330
1F
100
AcDbEntity
  8
0
  6
Continuous
 62
     7
100
AcDbCircle
 10
-131.5466813157328
 20
246.9546735538131
 30
0.0
 40
4.000000000000004
100
AcDbArc
 50
75.46749278324886
 51
104.4225307811968
  0
ARC
  5
23E
330
1F
100
AcDbEntity
  8
0
  6
Continuous
 62
     7
100
AcDbCircle
 10
-131.5466813157328
 20
246.9546735538131
 30
0.0
 40
5.749999999999901
100
AcDbArc
 50
0.0
 51
79.94697650822414
  0
ARC
  5
23F
330
1F
100
AcDbEntity
  8
0
  6
Continuous
 62
     7
100
AcDbCircle
 10
-131.5466813157328
 20
246.9546735538131
 30
0.0
 40
5.750000000000114
100
AcDbArc
 50
99.97780120497961
 51
180.0
  0
ARC
  5
240
330
1F
100
AcDbEntity
  8
0
  6
Continuous
 62
     7
100
AcDbCircle
 10
-131.5466813157553
 20
246.9546735537854
 30
0.0
 40
4.749999999977534
100
AcDbArc
 50
102.1073380806353
 51
179.9999999996657
  0
ARC
  5
241
330
1F
100
AcDbEntity
  8
0
  6
Continuous
 62
     7
100
AcDbCircle
 10
-131.5466813157328
 20
246.9546735538131
 30
0.0
 40
5.750000000000061
100
AcDbArc
 50
79.94697650822414
 51
99.97780120497961
  0
ARC
  5
242
330
1F
100
AcDbEntity
  8
0
  6
Continuous
 62
     7
100
AcDbCircle
 10
-131.5466813157328
 20
246.9546735538131
 30
0.0
 40
1.299999999999898
100
AcDbArc
 50
0.0
 51
180.0
  0
ARC
  5
243
330
1F
100
AcDbEntity
  8
0
  6
Continuous
 62
     7
100
AcDbCircle
 10
-131.5466813157328
 20
246.9546735538131
 30
0.0
 40
7.699999999999914
100
AcDbArc
 50
280.4756816963892
 51
168.7666561571134
  0
ARC
  5
244
330
1F
100
AcDbEntity
  8
0
  6
Continuous
 62
     7
100
AcDbCircle
 10
-131.5466813157328
 20
246.9546735538131
 30
0.0
 40
7.699999999999942
100
AcDbArc
 50
198.9459057985628
 51
259.5243183036101
  0
ARC
  5
245
330
1F
100
AcDbEntity
  8
0
  6
Continuous
 62
     7
100
AcDbCircle
 10
-131.5466813157328
 20
246.9546735538131
 30
0.0
 40
7.700000000000018
100
AcDbArc
 50
259.5243183036101
 51
280.4756816963892
  0
ARC
  5
246
330
1F
100
AcDbEntity
  8
0
  6
Continuous
 62
     7
100
AcDbCircle
 10
-131.5466813157328
 20
246.9546735538131
 30
0.0
 40
7.699999999999949
100
AcDbArc
 50
187.4620876856187
 51
198.9459057985628
  0
ARC
  5
247
330
1F
100
AcDbEntity
  8
0
  6
Continuous
 62
     7
100
AcDbCircle
 10
-131.5466813157328
 20
246.9546735538131
 30
0.0
 40
7.700000000000102
100
AcDbArc
 50
180.0
 51
187.4620876856187
  0
ARC
  5
248
330
1F
100
AcDbEntity
  8
0
  6
Continuous
 62
     7
100
AcDbCircle
 10
-131.5466813157328
 20
246.9546735538131
 30
0.0
 40
5.800000000000002
100
AcDbArc
 50
260.572869425341
 51
279.4271305746581
  0
ARC
  5
249
330
1F
100
AcDbEntity
  8
0
  6
Continuous
 62
     7
100
AcDbCircle
 10
-131.5466813157328
 20
246.9546735538131
 30
0.0
 40
5.799999999999988
100
AcDbArc
 50
279.4271305746581
 51
260.572869425341
  0
ARC
  5
24A
330
1F
100
AcDbEntity
  8
0
  6
Continuous
 62
     7
100
AcDbCircle
 10
-131.5466813157328
 20
246.9546735538131
 30
0.0
 40
7.700000000000006
100
AcDbArc
 50
168.7666561571134
 51
180.0
  0
ARC
  5
24B
330
1F
100
AcDbEntity
  8
0
  6
Continuous
 62
     7
100
AcDbCircle
 10
-67.87889192181478
 20
171.3000044408134
 30
0.0
 40
0.299999999999972
100
AcDbArc
 50
152.2517965370201
 51
180.0
  0
ARC
  5
24C
330
1F
100
AcDbEntity
  8
0
  6
Continuous
 62
     7
100
AcDbCircle
 10
-69.4788919218148
 20
164.9500044408134
 30
0.0
 40
2.0
100
AcDbArc
 50
90.0
 51
180.0
  0
ARC
  5
24D
330
1F
100
AcDbEntity
  8
0
  6
Continuous
 62
     7
100
AcDbCircle
 10
-53.87889192181478
 20
171.3000044408134
 30
0.0
 40
0.3000000000000043
100
AcDbArc
 50
0.0
 51
27.74820346298049
  0
ARC
  5
24E
102
{ACAD_REACTORS
330
2D1
102
}
330
1F
100
AcDbEntity
  8
1
  6
Continuous
 62
     7
100
AcDbCircle
 10
-19.72539976544869
 20
15.73121731203457
 30
0.0
 40
0.2649662124752854
100
AcDbArc
 50
30.00000000001921
 51
180.0
  0
ARC
  5
24F
102
{ACAD_REACTORS
330
2D1
102
}
330
1F
100
AcDbEntity
  8
1
  6
Continuous
 62
     7
100
AcDbCircle
 10
-19.65703264459069
 20
10.84758507263291
 30
0.0
 40
0.3333333333333997
100
AcDbArc
 50
180.0
 51
0.0
  0
ARC
  5
250
102
{ACAD_REACTORS
330
2D1
102
}
330
1F
100
AcDbEntity
  8
1
  6
Continuous
 62
     7
100
AcDbCircle
 10
-16.99036597792389
 20
9.3082690706018
 30
0.0
 40
0.3333333333333997
100
AcDbArc
 50
180.0
 51
0.0
  0
ARC
  5
251
102
{ACAD_REACTORS
330
2D1
102
}
330
1F
100
AcDbEntity
  8
1
  6
Continuous
 62
     7
100
AcDbCircle
 10
-16.921998857066
 20
15.73121731203457
 30
0.0
 40
0.2649662124753114
100
AcDbArc
 50
0.0
 51
149.9999999999689
  0
ARC
  5
252
102
{ACAD_REACTORS
330
2D2
102
}
330
1F
100
AcDbEntity
  8
1
  6
Continuous
 62
     7
100
AcDbCircle
 10
-20.99036597792409
 20
14.92250016016737
 30
0.0
 40
0.3333333333333997
100
AcDbArc
 50
0.0
 51
180.0
  0
ARC
  5
253
102
{ACAD_REACTORS
330
2D2
102
}
330
1F
100
AcDbEntity
  8
1
  6
Continuous
 62
     7
100
AcDbCircle
 10
-18.65703264459069
 20
8.7313459936787
 30
0.0
 40
0.3333333333333673
100
AcDbArc
 50
240.0183606311504
 51
60.01836063115359
  0
ARC
  5
254
102
{ACAD_REACTORS
330
2D3
102
}
330
1F
100
AcDbEntity
  8
1
  6
Continuous
 62
     7
100
AcDbCircle
 10
-22.32369931125729
 20
14.15326939093666
 30
0.0
 40
0.3333333333332007
100
AcDbArc
 50
0.0
 51
180.0
  0
ARC
  5
255
102
{ACAD_REACTORS
330
2D3
102
}
330
1F
100
AcDbEntity
  8
1
  6
Continuous
 62
     7
100
AcDbCircle
 10
-22.32369931125729
 20
10.84673060906317
 30
0.0
 40
0.3333333333333997
100
AcDbArc
 50
180.0
 51
0.0
  0
ARC
  5
256
102
{ACAD_REACTORS
330
2D4
102
}
330
1F
100
AcDbEntity
  8
1
  6
Continuous
 62
     7
100
AcDbCircle
 10
-14.32369931125729
 20
14.15326939093666
 30
0.0
 40
0.333333333333372
100
AcDbArc
 50
240.0183606311508
 51
60.01836063115039
  0
ARC
  5
257
102
{ACAD_REACTORS
330
2D4
102
}
330
1F
100
AcDbEntity
  8
1
  6
Continuous
 62
     7
100
AcDbCircle
 10
-14.32369931125729
 20
12.5
 30
0.0
 40
0.3333333333334298
100
AcDbArc
 50
270.0
 51
90.0
  0
ARC
  5
258
102
{ACAD_REACTORS
330
2D4
102
}
330
1F
100
AcDbEntity
  8
1
  6
Continuous
 62
     7
100
AcDbCircle
 10
-14.32369931125729
 20
10.84673060906317
 30
0.0
 40
0.3333333333333121
100
AcDbArc
 50
299.9816393688349
 51
119.9816393688398
  0
CIRCLE
  5
259
330
1F
100
AcDbEntity
  8
0
  6
Continuous
 62
     7
100
AcDbCircle
 10
-131.5466813157328
 20
246.9546735538131
 30
0.0
 40
7.10000000000008
  0
CIRCLE
  5
25A
330
1F
100
AcDbEntity
  8
0
  6
Continuous
 62
     7
100
AcDbCircle
 10
-131.5466813157328
 20
246.9546735538131
 30
0.0
 40
6.849999999999994
  0
SPLINE
  5
25B
330
1F
100
AcDbEntity
  8
0
  6
Continuous
 62
     7
100
AcDbSpline
210
0.0
220
0.0
230
1.0
 70
     8
 71
     3
 72
    19
 73
    15
 74
    13
 42
0.000000001
 43
0.0000000001
 44
0.00000001
 40
0.0
 40
0.0
 40
0.0
 40
0.0
 40
0.018032926440396
 40
0.0394827029540817
 40
0.0592155452227982
 40
0.0789608478638923
 40
0.1183532174478844
 40
0.1578297842597755
 40
0.1972258221568211
 40
0.236709688558208
 40
0.2581240336268231
 40
0.2761842450824704
 40
0.2942448425787799
 40
0.3156875927266688
 40
0.3156875927266688
 40
0.3156875927266688
 40
0.3156875927266688
 10
-124.0394545577345
 20
81.88739800539122
 30
0.0
 10
-124.042140914454
 20
81.88201624377304
 30
0.0
 10
-124.0480226481172
 20
81.87023300009419
 30
0.0
 10
-124.058991839536
 20
81.85375509026
 30
0.0
 10
-124.0718478289816
 20
81.83799776454131
 30
0.0
 10
-124.0904672872354
 20
81.819381867705
 30
0.0
 10
-124.1170819922943
 20
81.79969626134083
 30
0.0
 10
-124.1529989079799
 20
81.78284257650887
 30
0.0
 10
-124.1915388370713
 20
81.77330940608722
 30
0.0
 10
-124.225159559803
 20
81.77173004166049
 30
0.0
 10
-124.251386665392
 20
81.77442120744777
 30
0.0
 10
-124.2701994673058
 20
81.77824631844663
 30
0.0
 10
-124.2886661110674
 20
81.78360154473185
 30
0.0
 10
-124.3007723911974
 20
81.78881260355611
 30
0.0
 10
-124.3073437793159
 20
81.7916412171593
 30
0.0
 11
-124.0394545577345
 21
81.88739800539122
 31
0.0
 11
-124.0478123739208
 21
81.87141884993815
 31
0.0
 11
-124.0595976886171
 21
81.85349681479637
 31
0.0
 11
-124.0720924970196
 21
81.83822380364444
 31
0.0
 11
-124.086051979652
 21
81.8242592107693
 31
0.0
 11
-124.1177245139173
 21
81.80083679701016
 31
0.0
 11
-124.1534566089413
 21
81.78405535472501
 31
0.0
 11
-124.1916990276859
 21
81.77459146013518
 31
0.0
 11
-124.231138572466
 21
81.77272113447106
 31
0.0
 11
-124.252440561614
 21
81.77491190332992
 31
0.0
 11
-124.2701435835486
 21
81.77848601618285
 31
0.0
 11
-124.2874626776104
 21
81.78360794960965
 31
0.0
 11
-124.3073437793159
 21
81.7916412171593
 31
0.0
  0
SPLINE
  5
25C
330
1F
100
AcDbEntity
  8
0
  6
Continuous
 62
     7
100
AcDbSpline
210
0.0
220
0.0
230
1.0
 70
     8
 71
     3
 72
    21
 73
    17
 74
    15
 42
0.000000001
 43
0.0000000001
 44
0.00000001
 40
0.0
 40
0.0
 40
0.0
 40
0.0
 40
0.0214427506192339
 40
0.0395033482880245
 40
0.0609322917144578
 40
0.0789779112058024
 40
0.0970439941159597
 40
0.1184653518257088
 40
0.1365258849610353
 40
0.157951149522356
 40
0.1777014343329235
 40
0.19742912414103
 40
0.2154779598304896
 40
0.2369161236146863
 40
0.2509636474615173
 40
0.2672088609507209
 40
0.2672088609507209
 40
0.2672088609507209
 40
0.2672088609507209
 10
-128.8722929388218
 20
83.92031196932513
 30
0.0
 10
-128.878683781975
 20
83.92352793613021
 30
0.0
 10
-128.8904574377145
 20
83.92945262930544
 30
0.0
 10
-128.9073647466842
 20
83.94078061186079
 30
0.0
 10
-128.9222993597981
 20
83.95286024177588
 30
0.0
 10
-128.9359701262234
 20
83.96635157865407
 30
0.0
 10
-128.9483953314854
 20
83.98099066246327
 30
0.0
 10
-128.9593491530509
 20
83.99678497580427
 30
0.0
 10
-128.9692515549603
 20
84.01453710518709
 30
0.0
 10
-128.9771546505789
 20
84.03267468601639
 30
0.0
 10
-128.9833281669027
 20
84.05204787097624
 30
0.0
 10
-128.9873289719074
 20
84.0708336834832
 30
0.0
 10
-128.9896103289801
 20
84.09046674833834
 30
0.0
 10
-128.9898755055218
 20
84.10834251995611
 30
0.0
 10
-128.9886842913921
 20
84.12556583234255
 30
0.0
 10
-128.9870057851415
 20
84.13552900360946
 30
0.0
 10
-128.9861056382076
 20
84.14087199421002
 30
0.0
 11
-128.8722929388218
 21
83.92031196932513
 31
0.0
 11
-128.8912261046311
 21
83.93037809196318
 31
0.0
 11
-128.9062822323451
 21
83.94035297238503
 31
0.0
 11
-128.9229217930659
 21
83.95385573783648
 31
0.0
 11
-128.9357703257852
 21
83.96652694984296
 31
0.0
 11
-128.9474589183519
 21
83.98030229657701
 31
0.0
 11
-128.9596662247129
 21
83.99790503123886
 31
0.0
 11
-128.9684635938497
 21
84.0136780833922
 31
0.0
 11
-128.9770208129924
 21
84.03332028267636
 31
0.0
 11
-128.9830160675986
 21
84.05213864339734
 31
0.0
 11
-128.9871261665923
 21
84.07143343188913
 31
0.0
 11
-128.9892027832491
 21
84.08936240743395
 31
0.0
 11
-128.9895497330205
 21
84.1107977649109
 31
0.0
 11
-128.9885239624811
 21
84.12480778821806
 31
0.0
 11
-128.9861056382076
 21
84.14087199421002
 31
0.0
  0
SPLINE
  5
25D
330
1F
100
AcDbEntity
  8
0
  6
Continuous
 62
     7
100
AcDbSpline
210
0.0
220
0.0
230
1.0
 70
     8
 71
     3
 72
     9
 73
     5
 74
     3
 42
0.000000001
 43
0.0000000001
 44
0.00000001
 40
0.0
 40
0.0
 40
0.0
 40
0.0
 40
0.0028515762771459
 40
0.005705045247979
 40
0.005705045247979
 40
0.005705045247979
 40
0.005705045247979
 10
-128.8774293001587
 20
254.1772142201821
 30
0.0
 10
-128.8765778406452
 20
254.1776367955111
 30
0.0
 10
-128.8748743477079
 20
254.1784822086719
 30
0.0
 10
-128.8731536016221
 20
254.1792919275622
 30
0.0
 10
-128.8722929388218
 20
254.1796969123016
 30
0.0
 11
-128.8774293001587
 21
254.1772142201821
 31
0.0
 11
-128.8748706067813
 21
254.1784730195551
 31
0.0
 11
-128.8722929388218
 21
254.1796969123016
 31
0.0
  0
SPLINE
  5
25E
330
1F
100
AcDbEntity
  8
0
  6
Continuous
 62
     7
100
AcDbSpline
210
0.0
220
0.0
230
1.0
 70
     8
 71
     3
 72
    21
 73
    17
 74
    15
 42
0.000000001
 43
0.0000000001
 44
0.00000001
 40
0.0
 40
0.0
 40
0.0
 40
0.0
 40
0.0394637493454079
 40
0.0788864753701253
 40
0.1003291361465449
 40
0.1183739235124955
 40
0.1364344566696194
 40
0.1578597212854021
 40
0.1776100061785971
 40
0.1973376961323067
 40
0.2153865320346479
 40
0.2368246962883064
 40
0.2565699987939216
 40
0.276302840895741
 40
0.2943380252434795
 40
0.3157855413181215
 40
0.3157855413181215
 40
0.3157855413181215
 40
0.3157855413181215
 10
-124.3073437793159
 20
256.3083676644675
 30
0.0
 10
-124.2950947847165
 20
256.3132714920766
 30
0.0
 10
-124.2706095237014
 20
256.3230740358701
 30
0.0
 10
-124.2371358155651
 20
256.3276394880812
 30
0.0
 10
-124.210813271968
 20
256.3276147647597
 30
0.0
 10
-124.1916965783257
 20
256.3256870576622
 30
0.0
 10
-124.1728393743797
 20
256.3220760195263
 30
0.0
 10
-124.1538650546032
 20
256.3164709752
 30
0.0
 10
-124.1350564140676
 20
256.3087471559959
 30
0.0
 10
-124.1180927887883
 20
256.2997378038312
 30
0.0
 10
-124.1015908835938
 20
256.2888612374887
 30
0.0
 10
-124.0862329569415
 20
256.276390922152
 30
0.0
 10
-124.0718464828379
 20
256.2620111427872
 30
0.0
 10
-124.0597135607709
 20
256.2471352150679
 30
0.0
 10
-124.0486130305632
 20
256.230761884918
 30
0.0
 10
-124.0426783479417
 20
256.2190000573491
 30
0.0
 10
-124.0394545577345
 20
256.2126108762355
 30
0.0
 11
-124.3073437793159
 21
256.3083676644675
 31
0.0
 11
-124.2701377307316
 21
256.3215243187628
 31
0.0
 11
-124.231138572466
 21
256.3272877471557
 31
0.0
 11
-124.2096959961347
 21
256.3272273182404
 31
0.0
 11
-124.1917415798239
 21
256.3254236258056
 31
0.0
 11
-124.1740038809926
 21
256.322024079056
 31
0.0
 11
-124.1534566089413
 21
256.3159535269018
 31
0.0
 11
-124.1351872329062
 21
256.3084499492727
 31
0.0
 11
-124.1177646466916
 21
256.2991960167925
 31
0.0
 11
-124.1026954311482
 21
256.2892622741088
 31
0.0
 11
-124.086051979652
 21
256.2757496708574
 31
0.0
 11
-124.0720924970196
 21
256.2617850779824
 31
0.0
 11
-124.0595976886171
 21
256.2465120668304
 31
0.0
 11
-124.049558738291
 21
256.2315291630313
 31
0.0
 11
-124.0394545577345
 21
256.2126108762355
 31
0.0
  0
SPLINE
  5
25F
330
1F
100
AcDbEntity
  8
0
  6
Continuous
 62
     7
100
AcDbSpline
210
0.0
220
0.0
230
1.0
 70
     8
 71
     3
 72
    21
 73
    17
 74
    15
 42
0.000000001
 43
0.0000000001
 44
0.00000001
 40
0.0
 40
0.0
 40
0.0
 40
0.0
 40
0.2624966368971421
 40
0.4863637888250366
 40
0.7452871036810075
 40
0.9658283624546262
 40
1.434807149405631
 40
1.896771053384096
 40
2.142072719711027
 40
2.350961516567936
 40
2.594882338072179
 40
2.802523018053971
 40
3.03120843175763
 40
3.258817172984148
 40
3.51457437257612
 40
3.73103631192976
 40
3.73103631192976
 40
3.73103631192976
 40
3.73103631192976
 10
-128.9896911978032
 20
185.8500044408134
 30
0.0
 10
-128.9758807455149
 20
185.936466387795
 30
0.0
 10
-128.9502921986637
 20
186.0966663811241
 30
0.0
 10
-128.8855066095647
 20
186.3368725021957
 30
0.0
 10
-128.8072436042823
 20
186.5581612460567
 30
0.0
 10
-128.676932338489
 20
186.8464916339204
 30
0.0
 10
-128.4768150866624
 20
187.1762798672735
 30
0.0
 10
-128.2177984596339
 20
187.4734344371818
 30
0.0
 10
-127.9874094706022
 20
187.6745304627992
 30
0.0
 10
-127.7988804333847
 20
187.8113852450261
 30
0.0
 10
-127.6093296133412
 20
187.9241134892858
 30
0.0
 10
-127.4042553227067
 20
188.0214590852605
 30
0.0
 10
-127.1961518813289
 20
188.0979037731403
 30
0.0
 10
-126.9660843952131
 20
188.1573627151904
 30
0.0
 10
-126.7349302778434
 20
188.1936724888922
 30
0.0
 10
-126.5774723268042
 20
188.1980142259852
 30
0.0
 10
-126.5052947067207
 20
188.2000044408134
 30
0.0
 11
-128.9896911978032
 21
185.8500044408134
 31
0.0
 11
-128.9433983258961
 21
186.1083868211099
 31
0.0
 11
-128.8860265176751
 21
186.3247776192265
 31
0.0
 11
-128.7993203961561
 21
186.568751658209
 31
0.0
 11
-128.7084990452308
 21
186.7697241170187
 31
0.0
 11
-128.4646299631409
 21
187.1703099059327
 31
0.0
 11
-128.1606533678801
 21
187.5181732110598
 31
0.0
 11
-127.9757907921394
 21
187.6794144461063
 31
0.0
 11
-127.8067080081935
 21
187.8020747161959
 31
0.0
 11
-127.5970108451883
 21
187.9266719367174
 31
0.0
 11
-127.4094169832859
 21
188.0156842688825
 31
0.0
 11
-127.1947066137801
 21
188.094401967941
 31
0.0
 11
-126.9744080458861
 21
188.1516232986619
 31
0.0
 11
-126.7215158886749
 21
188.1897979383703
 31
0.0
 11
-126.5052947067207
 21
188.2000044408134
 31
0.0
  0
SPLINE
  5
260
330
1F
100
AcDbEntity
  8
0
  6
Continuous
 62
     7
100
AcDbSpline
210
0.0
220
0.0
230
1.0
 70
     8
 71
     3
 72
    13
 73
     9
 74
     7
 42
0.000000001
 43
0.0000000001
 44
0.00000001
 40
0.0
 40
0.0
 40
0.0
 40
0.0
 40
0.5913695210178179
 40
1.189594669327794
 40
1.799823334508971
 40
2.424342139172666
 40
3.062230799012201
 40
3.709746943315428
 40
3.709746943315428
 40
3.709746943315428
 40
3.709746943315428
 10
-126.5052947067207
 20
182.7000044408134
 30
0.0
 10
-126.3076152044795
 20
182.7151352619411
 30
0.0
 10
-125.9099645434131
 20
182.7455723269793
 30
0.0
 10
-125.3495116327197
 20
182.9862102253362
 30
0.0
 10
-124.8550499248978
 20
183.3536488864746
 30
0.0
 10
-124.4569405536994
 20
183.8411480056803
 30
0.0
 10
-124.1644587833276
 20
184.4152941244313
 30
0.0
 10
-124.0813301683904
 20
184.8373805467032
 30
0.0
 10
-124.0394545577345
 20
185.0500044408134
 30
0.0
 11
-126.5052947067207
 21
182.7000044408134
 31
0.0
 11
-125.9189827087593
 21
182.7771805661469
 31
0.0
 11
-125.3655789456307
 21
183.0043756507381
 31
0.0
 11
-124.8761452526277
 21
183.3688392109817
 31
0.0
 11
-124.4781516683032
 21
183.8501134016532
 31
0.0
 11
-124.1939377532164
 21
184.4211864224035
 31
0.0
 11
-124.0394545577345
 21
185.0500044408134
 31
0.0
  0
SPLINE
  5
261
330
1F
100
AcDbEntity
  8
0
  6
Continuous
 62
     7
100
AcDbSpline
210
0.0
220
0.0
230
1.0
 70
     8
 71
     3
 72
     9
 73
     5
 74
     3
 42
0.000000001
 43
0.0000000001
 44
0.00000001
 40
0.0
 40
0.0
 40
0.0
 40
0.0
 40
0.4008772636551577
 40
0.8017545273104005
 40
0.8017545273104005
 40
0.8017545273104005
 40
0.8017545273104005
 10
-123.743621774516
 20
185.0500044408134
 30
0.0
 10
-123.7303686518321
 20
185.1833377739268
 30
0.0
 10
-123.703862426377
 20
185.4500044408134
 30
0.0
 10
-123.7303686518321
 20
185.7166711077
 30
0.0
 10
-123.743621774516
 20
185.8500044408134
 30
0.0
 11
-123.743621774516
 21
185.0500044408134
 31
0.0
 11
-123.7171155291045
 21
185.4500044408134
 31
0.0
 11
-123.743621774516
 21
185.8500044408134
 31
0.0
  0
SPLINE
  5
262
330
1F
100
AcDbEntity
  8
0
  6
Continuous
 62
     7
100
AcDbSpline
210
0.0
220
0.0
230
1.0
 70
     8
 71
     3
 72
    13
 73
     9
 74
     7
 42
0.000000001
 43
0.0000000001
 44
0.00000001
 40
0.0
 40
0.0
 40
0.0
 40
0.0
 40
0.647516144303226
 40
1.285404804142736
 40
1.909923608806444
 40
2.520152273987632
 40
3.118377422297611
 40
3.709746943315415
 40
3.709746943315415
 40
3.709746943315415
 40
3.709746943315415
 10
-124.0394545577345
 20
185.8500044408134
 30
0.0
 10
-124.0813301683903
 20
186.0626283349237
 30
0.0
 10
-124.1644587833276
 20
186.4847147571954
 30
0.0
 10
-124.4569405536994
 20
187.0588608759465
 30
0.0
 10
-124.8550499248978
 20
187.5463599951522
 30
0.0
 10
-125.3495116327197
 20
187.9137986562905
 30
0.0
 10
-125.9099645434131
 20
188.1544365546474
 30
0.0
 10
-126.3076152044796
 20
188.1848736196858
 30
0.0
 10
-126.5052947067207
 20
188.2000044408134
 30
0.0
 11
-124.0394545577345
 21
185.8500044408134
 31
0.0
 11
-124.1939377532164
 21
186.4788224592233
 31
0.0
 11
-124.4781516683032
 21
187.0498954799735
 31
0.0
 11
-124.8761452526277
 21
187.5311696706451
 31
0.0
 11
-125.3655789456307
 21
187.8956332308887
 31
0.0
 11
-125.9189827087593
 21
188.1228283154798
 31
0.0
 11
-126.5052947067207
 21
188.2000044408134
 31
0.0
  0
SPLINE
  5
263
330
1F
100
AcDbEntity
  8
0
  6
Continuous
 62
     7
100
AcDbSpline
210
0.0
220
0.0
230
1.0
 70
     8
 71
     3
 72
     9
 73
     5
 74
     3
 42
0.000000001
 43
0.0000000001
 44
0.00000001
 40
0.0
 40
0.0
 40
0.0
 40
0.0
 40
0.0009792937336419
 40
0.0019585874344389
 40
0.0019585874344389
 40
0.0019585874344389
 40
0.0019585874344389
 10
-125.7426232483788
 20
188.2000035916881
 30
0.0
 10
-125.742949679539
 20
188.2000038393496
 30
0.0
 10
-125.7436025418592
 20
188.2000043146728
 30
0.0
 10
-125.7442554043461
 20
188.2000044054331
 30
0.0
 10
-125.7445818355874
 20
188.2000044408134
 30
0.0
 11
-125.7426232483788
 21
188.2000035916881
 31
0.0
 11
-125.7436025419075
 21
188.2000042285321
 31
0.0
 11
-125.7445818355874
 21
188.2000044408134
 31
0.0
  0
SPLINE
  5
264
330
1F
100
AcDbEntity
  8
0
  6
Continuous
 62
     7
100
AcDbSpline
210
0.0
220
0.0
230
1.0
 70
     8
 71
     3
 72
    21
 73
    17
 74
    15
 42
0.000000001
 43
0.0000000001
 44
0.00000001
 40
0.0
 40
0.0
 40
0.0
 40
0.0
 40
0.6138179696459506
 40
1.235291614550029
 40
1.870004221304303
 40
2.520160541637999
 40
3.184264103889446
 40
3.857677124794206
 40
4.107890051839433
 40
4.358102978884658
 40
5.031515999790213
 40
5.695619562042296
 40
6.345775882376674
 40
6.980488489131572
 40
7.601962134036254
 40
8.215780103682794
 40
8.215780103682794
 40
8.215780103682794
 40
8.215780103682794
 10
-125.7426232483788
 20
188.2000035916881
 30
0.0
 10
-125.5374207004692
 20
188.1835034938343
 30
0.0
 10
-125.1244562743741
 20
188.150297492542
 30
0.0
 10
-124.5453870504852
 20
187.8906511956326
 30
0.0
 10
-124.0408350760159
 20
187.4959019796322
 30
0.0
 10
-123.6405980941884
 20
186.9753719663693
 30
0.0
 10
-123.3676431081417
 20
186.36554672168
 30
0.0
 10
-123.2649039985186
 20
185.8412835111599
 30
0.0
 10
-123.2488034813976
 20
185.4500044408134
 30
0.0
 10
-123.2649039985187
 20
185.0587253704666
 30
0.0
 10
-123.3676431081419
 20
184.5344621599461
 30
0.0
 10
-123.6405980941891
 20
183.9246369152563
 30
0.0
 10
-124.0408350760174
 20
183.404106901993
 30
0.0
 10
-124.5453870504876
 20
183.0093576859928
 30
0.0
 10
-125.1244562743774
 20
182.7497113890836
 30
0.0
 10
-125.5374207004729
 20
182.7165053877922
 30
0.0
 10
-125.7426232483828
 20
182.7000052899387
 30
0.0
 11
-125.7426232483788
 21
188.2000035916881
 31
0.0
 11
-125.1345319542596
 21
188.1163526218138
 31
0.0
 11
-124.5633199235754
 21
187.8715132639305
 31
0.0
 11
-124.0635194114323
 21
187.4802850142518
 31
0.0
 11
-123.6653439399433
 21
186.9663204861041
 31
0.0
 11
-123.3928658553134
 21
186.3606892155672
 31
0.0
 11
-123.2625557405746
 21
185.7000044408134
 31
0.0
 11
-123.2522354224104
 21
185.4500044408134
 31
0.0
 11
-123.2625557405746
 21
185.2000044408134
 31
0.0
 11
-123.3928658553137
 21
184.5393196660588
 31
0.0
 11
-123.6653439399441
 21
183.9336883955214
 31
0.0
 11
-124.0635194114338
 21
183.4197238673735
 31
0.0
 11
-124.5633199235778
 21
183.0284956176949
 31
0.0
 11
-125.1345319542629
 21
182.7836562598121
 31
0.0
 11
-125.7426232483828
 21
182.7000052899387
 31
0.0
  0
SPLINE
  5
265
330
1F
100
AcDbEntity
  8
0
  6
Continuous
 62
     7
100
AcDbSpline
210
0.0
220
0.0
230
1.0
 70
     8
 71
     3
 72
    23
 73
    19
 74
    17
 42
0.000000001
 43
0.0000000001
 44
0.00000001
 40
0.0
 40
0.0
 40
0.0
 40
0.0
 40
0.2359038466471149
 40
0.4722232807281291
 40
0.7178134913475097
 40
0.9285138874443035
 40
1.170932724930853
 40
1.380074898612544
 40
1.588963695443883
 40
1.83426536173332
 40
2.064017432993628
 40
2.295582471628039
 40
2.548014688121598
 40
2.766060542586221
 40
2.986601801334262
 40
3.245525116155351
 40
3.469392268046597
 40
3.731888904882603
 40
3.731888904882603
 40
3.731888904882603
 40
3.731888904882603
 10
-126.5052947067207
 20
182.7000044408134
 30
0.0
 10
-126.5839642131341
 20
182.7023441535549
 30
0.0
 10
-126.7414418158211
 20
182.7070277152287
 30
0.0
 10
-126.9782834798641
 20
182.7452252729627
 30
0.0
 10
-127.2019290437
 20
182.803918142172
 30
0.0
 10
-127.4205447764376
 20
182.8851604338085
 30
0.0
 10
-127.6196209662999
 20
182.981444314335
 30
0.0
 10
-127.8082641239522
 20
183.0954389650239
 30
0.0
 10
-127.9874068152219
 20
183.2254723673161
 30
0.0
 10
-128.1594277654548
 20
183.3756359356239
 30
0.0
 10
-128.3221715883494
 20
183.5463187707983
 30
0.0
 10
-128.4709899905943
 20
183.7323161404543
 30
0.0
 10
-128.6005733339171
 20
183.9275882754363
 30
0.0
 10
-128.7113828900503
 20
184.1297707722964
 30
0.0
 10
-128.807252115675
 20
184.3418576624575
 30
0.0
 10
-128.8855045616716
 20
184.5631339669897
 30
0.0
 10
-128.9502927777091
 20
184.8033431826861
 30
0.0
 10
-128.975880948487
 20
184.9635427329581
 30
0.0
 10
-128.9896911978032
 20
185.0500044408134
 30
0.0
 11
-126.5052947067207
 21
182.7000044408134
 31
0.0
 11
-126.740886931379
 21
182.7121258953365
 31
0.0
 11
-126.9744080458861
 21
182.7483855829649
 31
0.0
 11
-127.2118708980571
 21
182.811042953805
 31
0.0
 11
-127.4094169832859
 21
182.8843246127443
 31
0.0
 11
-127.6276754375723
 21
182.9898240930601
 31
0.0
 11
-127.8067080081935
 21
183.0979341654309
 31
0.0
 11
-127.9757907921418
 21
183.2205944355224
 31
0.0
 11
-128.1606533678801
 21
183.3818356705669
 31
0.0
 11
-128.3192583167067
 21
183.5480598706548
 31
0.0
 11
-128.4639888090475
 21
183.7288233955364
 31
0.0
 11
-128.6036395127014
 21
183.9391082146305
 31
0.0
 11
-128.7084990452309
 21
184.1302847646081
 31
0.0
 11
-128.7993203961563
 21
184.3312572234182
 31
0.0
 11
-128.8860265176751
 21
184.5752312624003
 31
0.0
 11
-128.9433983258962
 21
184.791622060517
 31
0.0
 11
-128.9896911978032
 21
185.0500044408134
 31
0.0
  0
SPLINE
  5
266
330
1F
100
AcDbEntity
  8
0
  6
Continuous
 62
     7
100
AcDbSpline
210
0.0
220
0.0
230
1.0
 70
     8
 71
     3
 72
     9
 73
     5
 74
     3
 42
0.000000001
 43
0.0000000001
 44
0.00000001
 40
0.0
 40
0.0
 40
0.0
 40
0.0
 40
0.4008772636552126
 40
0.8017545273103968
 40
0.8017545273103968
 40
0.8017545273103968
 40
0.8017545273103968
 10
-128.6753020724884
 20
185.8500044408134
 30
0.0
 10
-128.6885551951723
 20
185.7166711077
 30
0.0
 10
-128.7150614206274
 20
185.4500044408134
 30
0.0
 10
-128.6885551951723
 20
185.1833377739268
 30
0.0
 10
-128.6753020724884
 20
185.0500044408134
 30
0.0
 11
-128.6753020724884
 21
185.8500044408134
 31
0.0
 11
-128.7018083178998
 21
185.4500044408134
 31
0.0
 11
-128.6753020724884
 21
185.0500044408134
 31
0.0
  0
SPLINE
  5
267
330
1F
100
AcDbEntity
  8
0
  6
Continuous
 62
     7
100
AcDbSpline
210
0.0
220
0.0
230
1.0
 70
     8
 71
     3
 72
     9
 73
     5
 74
     3
 42
0.000000001
 43
0.0000000001
 44
0.00000001
 40
0.0
 40
0.0
 40
0.0
 40
0.0
 40
0.0009792936987506
 40
0.0019585874304456
 40
0.0019585874304456
 40
0.0019585874304456
 40
0.0019585874304456
 10
-125.7445818355874
 20
182.7000044408134
 30
0.0
 10
-125.7442554043468
 20
182.7000044761936
 30
0.0
 10
-125.7436025418612
 20
182.7000045669541
 30
0.0
 10
-125.7429496795423
 20
182.7000050422771
 30
0.0
 10
-125.7426232483828
 20
182.7000052899387
 30
0.0
 11
-125.7445818355874
 21
182.7000044408134
 31
0.0
 11
-125.7436025419095
 21
182.7000046530947
 31
0.0
 11
-125.7426232483828
 21
182.7000052899387
 31
0.0
  0
SPLINE
  5
268
330
1F
100
AcDbEntity
  8
0
  6
Continuous
 62
     7
100
AcDbSpline
210
0.0
220
0.0
230
1.0
 70
     8
 71
     3
 72
    13
 73
     9
 74
     7
 42
0.000000001
 43
0.0000000001
 44
0.00000001
 40
0.0
 40
0.0
 40
0.0
 40
0.0
 40
0.6737673666861969
 40
1.338212376417937
 40
1.988692074868811
 40
2.623712377734607
 40
3.245488426513574
 40
3.85961915429373
 40
3.85961915429373
 40
3.85961915429373
 40
3.85961915429373
 10
-122.8360203044207
 20
185.7000044408134
 30
0.0
 10
-122.8690229996369
 20
185.9231322841744
 30
0.0
 10
-122.9345717735246
 20
186.3663007342484
 30
0.0
 10
-123.216120216894
 20
186.9758820234988
 30
0.0
 10
-123.6145586198526
 20
187.4966845246651
 30
0.0
 10
-124.1201087961303
 20
187.8913599427408
 30
0.0
 10
-124.6994958391222
 20
188.1507854623344
 30
0.0
 10
-125.1127149366369
 20
188.1836659188718
 30
0.0
 10
-125.3180463994335
 20
188.2000044408134
 30
0.0
 11
-122.8360203044207
 21
185.7000044408134
 31
0.0
 11
-122.9664385410721
 21
186.3610290612744
 31
0.0
 11
-123.239168555425
 21
186.9669213888207
 31
0.0
 11
-123.6377071027448
 21
187.4810136635589
 31
0.0
 11
-124.1379344038266
 21
187.8721957634611
 31
0.0
 11
-124.7095791570361
 21
188.1167928498446
 31
0.0
 11
-125.3180463994335
 21
188.2000044408134
 31
0.0
  0
SPLINE
  5
269
330
1F
100
AcDbEntity
  8
0
  6
Continuous
 62
     7
100
AcDbSpline
210
0.0
220
0.0
230
1.0
 70
     8
 71
     3
 72
    13
 73
     9
 74
     7
 42
0.000000001
 43
0.0000000001
 44
0.00000001
 40
0.0
 40
0.0
 40
0.0
 40
0.0
 40
0.6141307277801424
 40
1.235906776559099
 40
1.870927079424902
 40
2.521406777875852
 40
3.18585178760756
 40
3.859619154293732
 40
3.859619154293732
 40
3.859619154293732
 40
3.859619154293732
 10
-125.3180463994335
 20
182.7000044408134
 30
0.0
 10
-125.112714936637
 20
182.7163429627549
 30
0.0
 10
-124.6994958391222
 20
182.7492234192924
 30
0.0
 10
-124.1201087961303
 20
183.0086489388859
 30
0.0
 10
-123.6145586198526
 20
183.4033243569616
 30
0.0
 10
-123.216120216894
 20
183.9241268581281
 30
0.0
 10
-122.9345717735247
 20
184.5337081473784
 30
0.0
 10
-122.8690229996369
 20
184.9768765974524
 30
0.0
 10
-122.8360203044207
 20
185.2000044408134
 30
0.0
 11
-125.3180463994335
 21
182.7000044408134
 31
0.0
 11
-124.7095791570361
 21
182.7832160317821
 31
0.0
 11
-124.1379344038266
 21
183.0278131181656
 31
0.0
 11
-123.6377071027448
 21
183.4189952180679
 31
0.0
 11
-123.239168555425
 21
183.9330874928061
 31
0.0
 11
-122.9664385410721
 21
184.5389798203524
 31
0.0
 11
-122.8360203044207
 21
185.2000044408134
 31
0.0
  0
SPLINE
  5
26A
330
1F
100
AcDbEntity
  8
0
  6
Continuous
 62
     7
100
AcDbSpline
210
0.0
220
0.0
230
1.0
 70
     8
 71
     3
 72
    57
 73
    53
 74
    51
 42
0.000000001
 43
0.0000000001
 44
0.00000001
 40
0.0
 40
0.0
 40
0.0
 40
0.0
 40
0.0009792910072614
 40
0.0019585829986762
 40
0.0745776130488332
 40
0.1470940168547583
 40
0.2195376128701974
 40
0.291937541115448
 40
0.3643223091374193
 40
0.4367198448627155
 40
0.5091575517830671
 40
0.5816623660969492
 40
0.6542608154447067
 40
0.7269790788762213
 40
0.7998430476954457
 40
0.8728783868329283
 40
0.9461105964055933
 40
1.019565073133086
 40
1.093267171291309
 40
1.167242262895891
 40
1.241515796822283
 40
1.325908946178632
 40
1.41040139017531
 40
1.49502469459738
 40
1.579808650484427
 40
1.664781426469373
 40
1.749969725214138
 40
1.83539894283816
 40
1.921093330326043
 40
2.007076155990265
 40
2.093369868153018
 40
2.179996257291011
 40
2.266976616961459
 40
2.354331902893854
 40
2.442082889689721
 40
2.530250324620002
 40
2.613142758907938
 40
2.696111042374286
 40
2.779168034039242
 40
2.862325459599677
 40
2.94559404069785
 40
3.02898362477125
 40
3.1125033151213
 40
3.196161600890313
 40
3.279966486678678
 40
3.363925621572324
 40
3.44804642737877
 40
3.532336225895968
 40
3.61680236505059
 40
3.701452343756161
 40
3.786293935342457
 40
3.87133530955202
 40
3.87133530955202
 40
3.87133530955202
 40
3.87133530955202
 10
-125.7426232483788
 20
188.2000035916881
 30
0.0
 10
-125.7422968181004
 20
188.2000038334635
 30
0.0
 10
-125.7416439572067
 20
188.2000043030712
 30
0.0
 10
-125.7167847626241
 20
188.2000093658456
 30
0.0
 10
-125.6680762405527
 20
188.1992269057695
 30
0.0
 10
-125.5956222741248
 20
188.1957322631995
 30
0.0
 10
-125.5233896316704
 20
188.189923239859
 30
0.0
 10
-125.4514235992764
 20
188.181811878705
 30
0.0
 10
-125.3797682271483
 20
188.1714105971179
 30
0.0
 10
-125.3084678918054
 20
188.158731709946
 30
0.0
 10
-125.2375668788424
 20
188.1437875568332
 30
0.0
 10
-125.1671094952179
 20
188.1265904678327
 30
0.0
 10
-125.0971400397356
 20
188.1071527724291
 30
0.0
 10
-125.0277028114669
 20
188.0854867969587
 30
0.0
 10
-124.9588421082456
 20
188.061604865384
 30
0.0
 10
-124.8906022268646
 20
188.0355192986187
 30
0.0
 10
-124.8230274663392
 20
188.0072424166386
 30
0.0
 10
-124.7561621170257
 20
187.9767865311695
 30
0.0
 10
-124.6900505033341
 20
187.9441639737315
 30
0.0
 10
-124.6247368250795
 20
187.9093869913064
 30
0.0
 10
-124.5574318169582
 20
187.8708453069502
 30
0.0
 10
-124.4884350903272
 20
187.8282808480919
 30
0.0
 10
-124.4180760467361
 20
187.7814497416557
 30
0.0
 10
-124.349255969958
 20
187.732161145598
 30
0.0
 10
-124.2820240318388
 20
187.6804646681855
 30
0.0
 10
-124.2164292221991
 20
187.6264098072444
 30
0.0
 10
-124.1525205796636
 20
187.5700460736382
 30
0.0
 10
-124.0903471315684
 20
187.5114229589548
 30
0.0
 10
-124.0299579118487
 20
187.4505899452572
 30
0.0
 10
-123.971401957663
 20
187.3875965034882
 30
0.0
 10
-123.9147283118589
 20
187.322492095607
 30
0.0
 10
-123.8599860224354
 20
187.2553261735684
 30
0.0
 10
-123.8072241472683
 20
187.1861481875048
 30
0.0
 10
-123.7564917398201
 20
187.1150075602331
 30
0.0
 10
-123.7078379052614
 20
187.0419537881092
 30
0.0
 10
-123.6623163169406
 20
186.9686538987082
 30
0.0
 10
-123.6198625456659
 20
186.8953751350928
 30
0.0
 10
-123.580397788441
 20
186.8223753479925
 30
0.0
 10
-123.5430483663046
 20
186.7481722952173
 30
0.0
 10
-123.5078323275588
 20
186.6728229398785
 30
0.0
 10
-123.4747677699292
 20
186.5963843082114
 30
0.0
 10
-123.4438727872634
 20
186.5189134021618
 30
0.0
 10
-123.41516547586
 20
186.440467224475
 30
0.0
 10
-123.388663964284
 20
186.3611027702842
 30
0.0
 10
-123.3643862887361
 20
186.2808770399142
 30
0.0
 10
-123.3423508638906
 20
186.1998470001268
 30
0.0
 10
-123.3225747202791
 20
186.1180697307097
 30
0.0
 10
-123.3050801022592
 20
186.0356018792715
 30
0.0
 10
-123.2898697691081
 20
185.9525017050271
 30
0.0
 10
-123.277019465139
 20
185.8688214300036
 30
0.0
 10
-123.2663316768297
 20
185.7846358817741
 30
0.0
 10
-123.2612049412092
 20
185.7282370299826
 30
0.0
 10
-123.2586385661614
 20
185.7000044408134
 30
0.0
 11
-125.7426232483788
 21
188.2000035916881
 31
0.0
 11
-125.7416439548521
 21
188.2000042285321
 31
0.0
 11
-125.7406646611742
 21
188.2000044408134
 31
0.0
 11
-125.6680550057904
 21
188.1988373426079
 31
0.0
 11
-125.5956227812603
 21
188.1953442510225
 31
0.0
 11
-125.5234122839808
 21
188.189537470604
 31
0.0
 11
-125.4514678103484
 21
188.1814293058992
 31
0.0
 11
-125.3798336567602
 21
188.1710320614549
 31
0.0
 11
-125.3085541196128
 21
188.1583580418177
 31
0.0
 11
-125.237673495303
 21
188.1434195515346
 31
0.0
 11
-125.1672360802276
 21
188.1262288951522
 31
0.0
 11
-125.0972861707834
 21
188.1067983772173
 31
0.0
 11
-125.0278680633672
 21
188.0851403022767
 31
0.0
 11
-124.9590260543757
 21
188.0612669748772
 31
0.0
 11
-124.8908044402058
 21
188.0351906995654
 31
0.0
 11
-124.8232475172543
 21
188.0069237808883
 31
0.0
 11
-124.7563995819179
 21
187.9764785233926
 31
0.0
 11
-124.6903049305934
 21
187.9438672316249
 31
0.0
 11
-124.6250078596776
 21
187.9091022101322
 31
0.0
 11
-124.5605526655673
 21
187.8721957634611
 31
0.0
 11
-124.4887251679374
 21
187.8278898467261
 31
0.0
 11
-124.4183862592037
 21
187.7810773374375
 31
0.0
 11
-124.349585048777
 21
187.7318077006382
 31
0.0
 11
-124.2823706460683
 21
187.6801304013712
 31
0.0
 11
-124.2167921604882
 21
187.6260949046791
 31
0.0
 11
-124.1528987014479
 21
187.5697506756051
 31
0.0
 11
-124.0907393783581
 21
187.5111471791918
 31
0.0
 11
-124.0303633006297
 21
187.4503338804823
 31
0.0
 11
-123.9718195776736
 21
187.3873602445193
 31
0.0
 11
-123.9151573189008
 21
187.3222757363458
 31
0.0
 11
-123.860425633722
 21
187.2551298210046
 31
0.0
 11
-123.8076736315483
 21
187.1859719635386
 31
0.0
 11
-123.7569504217903
 21
187.1148516289907
 31
0.0
 11
-123.7083051138592
 21
187.0418182824038
 31
0.0
 11
-123.6617868171656
 21
186.9669213888207
 31
0.0
 11
-123.6202305297603
 21
186.8951980965736
 31
0.0
 11
-123.5807708079889
 21
186.8222140816787
 31
0.0
 11
-123.5434258026931
 21
186.7480263842177
 31
0.0
 11
-123.5082136647148
 21
186.672692044272
 31
0.0
 11
-123.4751525448957
 21
186.5962681019233
 31
0.0
 11
-123.4442605940779
 21
186.518811597253
 31
0.0
 11
-123.4155559631029
 21
186.4403795703429
 31
0.0
 11
-123.3890568028128
 21
186.3610290612744
 31
0.0
 11
-123.3647812640492
 21
186.2808171101291
 31
0.0
 11
-123.3427474976541
 21
186.1998007569885
 31
0.0
 11
-123.3229736544691
 21
186.1180370419343
 31
0.0
 11
-123.3054778853362
 21
186.0355830050481
 31
0.0
 11
-123.2902783410972
 21
185.9524956864113
 31
0.0
 11
-123.2773931725938
 21
185.8688321261055
 31
0.0
 11
-123.2668405306679
 21
185.7846493642124
 31
0.0
 11
-123.2586385661614
 21
185.7000044408134
 31
0.0
  0
SPLINE
  5
26B
330
1F
100
AcDbEntity
  8
0
  6
Continuous
 62
     7
100
AcDbSpline
210
0.0
220
0.0
230
1.0
 70
     8
 71
     3
 72
    57
 73
    53
 74
    51
 42
0.000000001
 43
0.0000000001
 44
0.00000001
 40
0.0
 40
0.0
 40
0.0
 40
0.0
 40
0.0009792910092225
 40
0.0019585830026694
 40
0.0745776130528279
 40
0.1470940168587475
 40
0.2195376128741911
 40
0.2919375411194354
 40
0.3643223091414108
 40
0.436719844866702
 40
0.5091575517870596
 40
0.5816623661009349
 40
0.6542608154487
 40
0.7269790788802145
 40
0.7998430476994297
 40
0.8728783868369123
 40
0.9461105964095663
 40
1.019565073137071
 40
1.093267171295269
 40
1.167242262899865
 40
1.241515796826256
 40
1.325908946182635
 40
1.410401390179282
 40
1.495024694601335
 40
1.579808650488417
 40
1.664781426473381
 40
1.749969725218109
 40
1.835398942842131
 40
1.921093330330053
 40
2.007076155994276
 40
2.093369868157051
 40
2.179996257295044
 40
2.266976616965446
 40
2.354331902897888
 40
2.442082889693731
 40
2.530250324624061
 40
2.613142758911972
 40
2.696111042378321
 40
2.779168034043302
 40
2.86232545960371
 40
2.945594040701857
 40
3.028983624775258
 40
3.112503315125334
 40
3.196161600894347
 40
3.279966486682739
 40
3.36392562157633
 40
3.448046427382804
 40
3.532336225899974
 40
3.616802365054653
 40
3.701452343760195
 40
3.786293935346492
 40
3.871335309556026
 40
3.871335309556026
 40
3.871335309556026
 40
3.871335309556026
 10
-125.7426232483828
 20
182.7000052899387
 30
0.0
 10
-125.7422968181038
 20
182.7000050481633
 30
0.0
 10
-125.7416439572086
 20
182.7000045785556
 30
0.0
 10
-125.7167847626269
 20
182.6999995157806
 30
0.0
 10
-125.6680762405517
 20
182.7007819758577
 30
0.0
 10
-125.595622274125
 20
182.7042766184271
 30
0.0
 10
-125.5233896316703
 20
182.7100856417679
 30
0.0
 10
-125.4514235992764
 20
182.7181970029217
 30
0.0
 10
-125.3797682271482
 20
182.7285982845089
 30
0.0
 10
-125.3084678918054
 20
182.7412771716807
 30
0.0
 10
-125.2375668788424
 20
182.7562213247937
 30
0.0
 10
-125.1671094952179
 20
182.773418413794
 30
0.0
 10
-125.0971400397356
 20
182.7928561091977
 30
0.0
 10
-125.0277028114668
 20
182.8145220846681
 30
0.0
 10
-124.9588421082456
 20
182.8384040162427
 30
0.0
 10
-124.8906022268646
 20
182.8644895830081
 30
0.0
 10
-124.8230274663392
 20
182.8927664649881
 30
0.0
 10
-124.7561621170258
 20
182.9232223504573
 30
0.0
 10
-124.6900505033341
 20
182.9558449078952
 30
0.0
 10
-124.6247368250795
 20
182.9906218903203
 30
0.0
 10
-124.5574318169582
 20
183.0291635746765
 30
0.0
 10
-124.4884350903272
 20
183.071728033535
 30
0.0
 10
-124.4180760467361
 20
183.118559139971
 30
0.0
 10
-124.349255969958
 20
183.1678477360288
 30
0.0
 10
-124.2820240318388
 20
183.2195442134412
 30
0.0
 10
-124.2164292221991
 20
183.2735990743823
 30
0.0
 10
-124.1525205796636
 20
183.3299628079886
 30
0.0
 10
-124.0903471315684
 20
183.3885859226719
 30
0.0
 10
-124.0299579118488
 20
183.4494189363696
 30
0.0
 10
-123.9714019576629
 20
183.5124123781385
 30
0.0
 10
-123.9147283118589
 20
183.5775167860198
 30
0.0
 10
-123.8599860224354
 20
183.6446827080584
 30
0.0
 10
-123.8072241472682
 20
183.7138606941219
 30
0.0
 10
-123.7564917398201
 20
183.7850013213937
 30
0.0
 10
-123.7078379052614
 20
183.8580550935176
 30
0.0
 10
-123.6623163169406
 20
183.9313549829186
 30
0.0
 10
-123.6198625456659
 20
184.004633746534
 30
0.0
 10
-123.580397788441
 20
184.0776335336342
 30
0.0
 10
-123.5430483663046
 20
184.1518365864096
 30
0.0
 10
-123.5078323275588
 20
184.2271859417482
 30
0.0
 10
-123.4747677699292
 20
184.3036245734154
 30
0.0
 10
-123.4438727872634
 20
184.3810954794649
 30
0.0
 10
-123.41516547586
 20
184.4595416571518
 30
0.0
 10
-123.388663964284
 20
184.5389061113426
 30
0.0
 10
-123.3643862887362
 20
184.6191318417126
 30
0.0
 10
-123.3423508638906
 20
184.7001618815001
 30
0.0
 10
-123.3225747202791
 20
184.781939150917
 30
0.0
 10
-123.3050801022592
 20
184.8644070023553
 30
0.0
 10
-123.2898697691081
 20
184.9475071765997
 30
0.0
 10
-123.277019465139
 20
185.0311874516232
 30
0.0
 10
-123.2663316768297
 20
185.1153729998527
 30
0.0
 10
-123.2612049412092
 20
185.1717718516442
 30
0.0
 10
-123.2586385661614
 20
185.2000044408134
 30
0.0
 11
-125.7426232483828
 21
182.7000052899387
 31
0.0
 11
-125.7416439548541
 21
182.7000046530947
 31
0.0
 11
-125.7406646611742
 21
182.7000044408134
 31
0.0
 11
-125.6680550057904
 21
182.7011715390189
 31
0.0
 11
-125.5956227812603
 21
182.7046646306043
 31
0.0
 11
-125.5234122839808
 21
182.7104714110228
 31
0.0
 11
-125.4514678103484
 21
182.7185795757275
 31
0.0
 11
-125.3798336567602
 21
182.7289768201719
 31
0.0
 11
-125.3085541196128
 21
182.741650839809
 31
0.0
 11
-125.237673495303
 21
182.7565893300922
 31
0.0
 11
-125.1672360802276
 21
182.7737799864746
 31
0.0
 11
-125.0972861707834
 21
182.7932105044095
 31
0.0
 11
-125.0278680633672
 21
182.81486857935
 31
0.0
 11
-124.9590260543757
 21
182.8387419067496
 31
0.0
 11
-124.8908044402058
 21
182.8648181820613
 31
0.0
 11
-124.8232475172543
 21
182.8930851007384
 31
0.0
 11
-124.7563995819179
 21
182.9235303582342
 31
0.0
 11
-124.6903049305934
 21
182.9561416500018
 31
0.0
 11
-124.6250078596776
 21
182.9909066714945
 31
0.0
 11
-124.5605526655673
 21
183.0278131181656
 31
0.0
 11
-124.4887251679374
 21
183.0721190349007
 31
0.0
 11
-124.4183862592037
 21
183.1189315441892
 31
0.0
 11
-124.349585048777
 21
183.1682011809885
 31
0.0
 11
-124.2823706460683
 21
183.2198784802556
 31
0.0
 11
-124.2167921604882
 21
183.2739139769476
 31
0.0
 11
-124.1528987014479
 21
183.3302582060217
 31
0.0
 11
-124.0907393783581
 21
183.3888617024349
 31
0.0
 11
-124.0303633006297
 21
183.4496750011445
 31
0.0
 11
-123.9718195776736
 21
183.5126486371075
 31
0.0
 11
-123.9151573189008
 21
183.577733145281
 31
0.0
 11
-123.860425633722
 21
183.6448790606222
 31
0.0
 11
-123.8076736315483
 21
183.7140369180882
 31
0.0
 11
-123.7569504217903
 21
183.7851572526361
 31
0.0
 11
-123.7083051138592
 21
183.858190599223
 31
0.0
 11
-123.6617868171656
 21
183.9330874928061
 31
0.0
 11
-123.6202305297603
 21
184.0048107850532
 31
0.0
 11
-123.5807708079889
 21
184.0777947999481
 31
0.0
 11
-123.5434258026931
 21
184.1519824974091
 31
0.0
 11
-123.5082136647148
 21
184.2273168373548
 31
0.0
 11
-123.4751525448957
 21
184.3037407797035
 31
0.0
 11
-123.4442605940779
 21
184.3811972843737
 31
0.0
 11
-123.4155559631029
 21
184.4596293112839
 31
0.0
 11
-123.3890568028128
 21
184.5389798203524
 31
0.0
 11
-123.3647812640492
 21
184.6191917714978
 31
0.0
 11
-123.3427474976541
 21
184.7002081246383
 31
0.0
 11
-123.3229736544691
 21
184.7819718396925
 31
0.0
 11
-123.3054778853362
 21
184.8644258765787
 31
0.0
 11
-123.2902783410972
 21
184.9475131952155
 31
0.0
 11
-123.2773931725938
 21
185.0311767555213
 31
0.0
 11
-123.2668405306679
 21
185.1153595174144
 31
0.0
 11
-123.2586385661614
 21
185.2000044408134
 31
0.0
  0
SPLINE
  5
26C
330
1F
100
AcDbEntity
  8
0
  6
Continuous
 62
     7
100
AcDbSpline
210
0.0
220
0.0
230
1.0
 70
     8
 71
     3
 72
    19
 73
    15
 74
    13
 42
0.000000001
 43
0.0000000001
 44
0.00000001
 40
0.0
 40
0.0
 40
0.0
 40
0.0
 40
0.3150569612989302
 40
0.7075394692128707
 40
1.206466850138876
 40
1.805208696511376
 40
2.478542050725211
 40
3.191395079026592
 40
3.904248107327916
 40
4.577581461541752
 40
5.176323307914225
 40
5.675250688840305
 40
6.067733196754245
 40
6.382790158053176
 40
6.382790158053176
 40
6.382790158053176
 40
6.382790158053176
 10
-54.40214876131665
 20
188.2000044408134
 30
0.0
 10
-54.50727496713579
 20
188.1778991051767
 30
0.0
 10
-54.7433622348542
 20
188.1282560078871
 30
0.0
 10
-55.02055082787317
 20
187.8080698127724
 30
0.0
 10
-55.25214342218649
 20
187.3716783526368
 30
0.0
 10
-55.42834218463381
 20
186.8033605015253
 30
0.0
 10
-55.53935134212749
 20
186.1502459702453
 30
0.0
 10
-55.57720415257229
 20
185.4500044408134
 30
0.0
 10
-55.53935134212748
 20
184.7497629113816
 30
0.0
 10
-55.42834218463381
 20
184.0966483801015
 30
0.0
 10
-55.25214342218644
 20
183.52833052899
 30
0.0
 10
-55.02055082787323
 20
183.0919390688544
 30
0.0
 10
-54.74336223485416
 20
182.7717528737396
 30
0.0
 10
-54.50727496713579
 20
182.7221097764501
 30
0.0
 10
-54.40214876131665
 20
182.7000044408134
 30
0.0
 11
-54.40214876131665
 21
188.2000044408134
 31
0.0
 11
-54.70294823222495
 21
188.1062997549245
 31
0.0
 11
-54.98324887121011
 21
187.8315743012206
 31
0.0
 11
-55.22394819872794
 21
187.3945475706499
 31
0.0
 11
-55.40864367593596
 21
186.8250044408134
 31
0.0
 11
-55.52474766963623
 21
186.161756625088
 31
0.0
 11
-55.56434898110356
 21
185.4500044408134
 31
0.0
 11
-55.52474766963623
 21
184.7382522565388
 31
0.0
 11
-55.40864367593596
 21
184.0750044408134
 31
0.0
 11
-55.22394819872794
 21
183.505461310977
 31
0.0
 11
-54.98324887121011
 21
183.0684345804062
 31
0.0
 11
-54.70294823222495
 21
182.7937091267023
 31
0.0
 11
-54.40214876131665
 21
182.7000044408134
 31
0.0
  0
SPLINE
  5
26D
330
1F
100
AcDbEntity
  8
0
  6
Continuous
 62
     7
100
AcDbSpline
210
0.0
220
0.0
230
1.0
 70
     8
 71
     3
 72
    13
 73
     9
 74
     7
 42
0.000000001
 43
0.0000000001
 44
0.00000001
 40
0.0
 40
0.0
 40
0.0
 40
0.0
 40
0.6329308008208588
 40
1.219180657042531
 40
1.734998018959231
 40
2.165022558760142
 40
2.508840409622719
 40
2.792926102541911
 40
2.792926102541911
 40
2.792926102541911
 40
2.792926102541911
 10
-53.920634889909
 20
185.0500044408134
 30
0.0
 10
-53.90158197630668
 20
184.8396448257329
 30
0.0
 10
-53.86488137133867
 20
184.4344403811177
 30
0.0
 10
-53.73409392887703
 20
183.8697375897987
 30
0.0
 10
-53.55612353308913
 20
183.3872883590905
 30
0.0
 10
-53.33443666645574
 20
183.0204545903093
 30
0.0
 10
-53.07570554320875
 20
182.7569083940659
 30
0.0
 10
-52.86577480987238
 20
182.7177300829887
 30
0.0
 10
-52.77079474465069
 20
182.7000044408134
 30
0.0
 11
-53.920634889909
 21
185.0500044408134
 31
0.0
 11
-53.84859819279951
 21
184.4211864224035
 31
0.0
 11
-53.71606706764035
 21
183.8501134016532
 31
0.0
 11
-53.53047961137328
 21
183.3688392109817
 31
0.0
 11
-53.30225293216687
 21
183.0043756507381
 31
0.0
 11
-53.04419651936823
 21
182.777180566147
 31
0.0
 11
-52.77079474465069
 21
182.7000044408134
 31
0.0
  0
SPLINE
  5
26E
330
1F
100
AcDbEntity
  8
0
  6
Continuous
 62
     7
100
AcDbSpline
210
0.0
220
0.0
230
1.0
 70
     8
 71
     3
 72
     9
 73
     5
 74
     3
 42
0.000000001
 43
0.0000000001
 44
0.00000001
 40
0.0
 40
0.0
 40
0.0
 40
0.0
 40
0.4001909181442685
 40
0.8003818362885087
 40
0.8003818362885087
 40
0.8003818362885087
 40
0.8003818362885087
 10
-54.55505034083464
 20
185.8500044408134
 30
0.0
 10
-54.56123037344204
 20
185.716671107583
 30
0.0
 10
-54.57359041867588
 20
185.4500044408134
 30
0.0
 10
-54.56123037344202
 20
185.1833377740438
 30
0.0
 10
-54.55505034083464
 20
185.0500044408134
 30
0.0
 11
-54.55505034083464
 21
185.8500044408134
 31
0.0
 11
-54.56741040605895
 21
185.4500044408134
 31
0.0
 11
-54.55505034083464
 21
185.0500044408134
 31
0.0
  0
SPLINE
  5
26F
330
1F
100
AcDbEntity
  8
0
  6
Continuous
 62
     7
100
AcDbSpline
210
0.0
220
0.0
230
1.0
 70
     8
 71
     3
 72
    13
 73
     9
 74
     7
 42
0.000000001
 43
0.0000000001
 44
0.00000001
 40
0.0
 40
0.0
 40
0.0
 40
0.0
 40
0.2840856929191835
 40
0.6279035437817608
 40
1.057928083582644
 40
1.5737454454994
 40
2.159995301721044
 40
2.792926102541903
 40
2.792926102541903
 40
2.792926102541903
 40
2.792926102541903
 10
-52.77079474465069
 20
188.2000044408134
 30
0.0
 10
-52.86577480987238
 20
188.1822787986381
 30
0.0
 10
-53.07570554320876
 20
188.143100487561
 30
0.0
 10
-53.33443666645572
 20
187.8795542913174
 30
0.0
 10
-53.55612353308914
 20
187.5127205225364
 30
0.0
 10
-53.73409392887704
 20
187.030271291828
 30
0.0
 10
-53.86488137133868
 20
186.4655685005091
 30
0.0
 10
-53.90158197630668
 20
186.060364055894
 30
0.0
 10
-53.920634889909
 20
185.8500044408134
 30
0.0
 11
-52.77079474465069
 21
188.2000044408134
 31
0.0
 11
-53.04419651936823
 21
188.1228283154798
 31
0.0
 11
-53.30225293216687
 21
187.8956332308887
 31
0.0
 11
-53.53047961137327
 21
187.5311696706451
 31
0.0
 11
-53.71606706764035
 21
187.0498954799735
 31
0.0
 11
-53.84859819279951
 21
186.4788224592233
 31
0.0
 11
-53.920634889909
 21
185.8500044408134
 31
0.0
  0
SPLINE
  5
270
330
1F
100
AcDbEntity
  8
0
  6
Continuous
 62
     7
100
AcDbSpline
210
0.0
220
0.0
230
1.0
 70
     8
 71
     3
 72
     9
 73
     5
 74
     3
 42
0.000000001
 43
0.0000000001
 44
0.00000001
 40
0.0
 40
0.0
 40
0.0
 40
0.0
 40
0.4001909181442108
 40
0.8003818362885069
 40
0.8003818362885069
 40
0.8003818362885069
 40
0.8003818362885069
 10
-52.25537005031799
 20
185.0500044408134
 30
0.0
 10
-52.24919001771062
 20
185.1833377740438
 30
0.0
 10
-52.23682997247679
 20
185.4500044408134
 30
0.0
 10
-52.24919001771062
 20
185.716671107583
 30
0.0
 10
-52.25537005031799
 20
185.8500044408134
 30
0.0
 11
-52.25537005031799
 21
185.0500044408134
 31
0.0
 11
-52.24300998509371
 21
185.4500044408134
 31
0.0
 11
-52.25537005031799
 21
185.8500044408134
 31
0.0
  0
SPLINE
  5
271
330
1F
100
AcDbEntity
  8
0
  6
Continuous
 62
     7
100
AcDbSpline
210
0.0
220
0.0
230
1.0
 70
     8
 71
     3
 72
    19
 73
    15
 74
    13
 42
0.000000001
 43
0.0000000001
 44
0.00000001
 40
0.0
 40
0.0
 40
0.0
 40
0.0
 40
0.1551599193498761
 40
0.3213781858108445
 40
0.5069637880183484
 40
0.7505994547596464
 40
0.9135636351983598
 40
1.069261728470453
 40
1.300750489516226
 40
1.512047723781222
 40
2.072624976763731
 40
2.682979726737664
 40
2.780798156260117
 40
2.879145736548034
 40
2.879145736548034
 40
2.879145736548034
 40
2.879145736548034
 10
-52.77079474465069
 20
188.2000044408134
 30
0.0
 10
-52.71896338258727
 20
188.1963884998696
 30
0.0
 10
-52.61160660619014
 20
188.1888988946463
 30
0.0
 10
-52.45178070262331
 20
188.1271955664543
 30
0.0
 10
-52.28435538698701
 20
188.0186946582233
 30
0.0
 10
-52.14445463007735
 20
187.8770948726853
 30
0.0
 10
-52.03251393081565
 20
187.7265356242543
 30
0.0
 10
-51.93651840963869
 20
187.5700383123065
 30
0.0
 10
-51.84755145450144
 20
187.3911301967869
 30
0.0
 10
-51.7227894539485
 20
187.0805765117791
 30
0.0
 10
-51.59981183055725
 20
186.6348096088126
 30
0.0
 10
-51.53703724253634
 20
186.215695793488
 30
0.0
 10
-51.51284330477128
 20
185.9479416629483
 30
0.0
 10
-51.50830133357758
 20
185.8827088359934
 30
0.0
 10
-51.50602422337289
 20
185.8500044408134
 30
0.0
 11
-52.77079474465069
 21
188.2000044408134
 31
0.0
 11
-52.61670823850841
 21
188.1817849039119
 31
0.0
 11
-52.4605630194138
 21
188.1248008357439
 31
0.0
 11
-52.30428354509122
 21
188.0247071725965
 31
0.0
 11
-52.13082240064523
 21
187.8536236575525
 31
0.0
 11
-52.03311656427925
 21
187.7231978413149
 31
0.0
 11
-51.9513606483082
 21
187.5906917418988
 31
0.0
 11
-51.84749196528107
 21
187.3838141378227
 31
0.0
 11
-51.76826631006114
 21
187.187931987792
 31
0.0
 11
-51.61483942697113
 21
186.6487594292494
 31
0.0
 11
-51.52192542053084
 21
186.0455182599578
 31
0.0
 11
-51.51319301746519
 21
185.9480903877874
 31
0.0
 11
-51.50602422337289
 21
185.8500044408134
 31
0.0
  0
SPLINE
  5
272
330
1F
100
AcDbEntity
  8
0
  6
Continuous
 62
     7
100
AcDbSpline
210
0.0
220
0.0
230
1.0
 70
     8
 71
     3
 72
    23
 73
    19
 74
    17
 42
0.000000001
 43
0.0000000001
 44
0.00000001
 40
0.0
 40
0.0
 40
0.0
 40
0.0
 40
0.0983475802812517
 40
0.1961660098100407
 40
0.4902780345576135
 40
0.8446374678994302
 40
1.088825439557331
 40
1.367672296888516
 40
1.595624166705074
 40
1.810462714032766
 40
1.973923161161036
 40
2.1291271367363
 40
2.245748487709253
 40
2.367590609882695
 40
2.459693169085365
 40
2.558919231978987
 40
2.725137498512909
 40
2.8802974178111
 40
2.8802974178111
 40
2.8802974178111
 40
2.8802974178111
 10
-51.50602422337289
 20
185.0500044408134
 30
0.0
 10
-51.50830116713411
 20
185.0173002582189
 30
0.0
 10
-51.5128428063617
 20
184.9520678552886
 30
0.0
 10
-51.52755425812021
 20
184.7892968080599
 30
0.0
 10
-51.55793269827032
 20
184.5422896413252
 30
0.0
 10
-51.6119595772474
 20
184.2494090231452
 30
0.0
 10
-51.68316497333592
 20
183.965612690566
 30
0.0
 10
-51.75948040265111
 20
183.726938383855
 30
0.0
 10
-51.8498116152571
 20
183.5037705433511
 30
0.0
 10
-51.94058562846432
 20
183.3229130932822
 30
0.0
 10
-52.0339444437737
 20
183.1713279046813
 30
0.0
 10
-52.12095521876401
 20
183.054911973176
 30
0.0
 10
-52.20921903391439
 20
182.957587691424
 30
0.0
 10
-52.29108862597029
 20
182.8835112229051
 30
0.0
 10
-52.37555929287724
 20
182.8218216433565
 30
0.0
 10
-52.4789679601498
 20
182.7624596251513
 30
0.0
 10
-52.61161730516675
 20
182.7110663258943
 30
0.0
 10
-52.71896686615826
 20
182.7036061657502
 30
0.0
 10
-52.77079474465069
 20
182.7000044408134
 30
0.0
 11
-51.50602422337289
 21
185.0500044408134
 31
0.0
 11
-51.51319301746451
 21
184.9519184938477
 31
0.0
 11
-51.52192542053084
 21
184.854490621669
 31
0.0
 11
-51.55812380358184
 21
184.5626146887558
 31
0.0
 11
-51.62295597909855
 21
184.2142364503471
 31
0.0
 11
-51.68268525720402
 21
183.9774661422297
 31
0.0
 11
-51.76826631006114
 21
183.7120768938348
 31
0.0
 11
-51.85433461192544
 21
183.5009979931984
 31
0.0
 11
-51.9513606483082
 21
183.309317139728
 31
0.0
 11
-52.03747718088977
 21
183.170380965482
 31
0.0
 11
-52.13082240064523
 21
183.0463852240742
 31
0.0
 11
-52.20938626396038
 21
182.9601978769124
 31
0.0
 11
-52.2999849579781
 21
182.8787277641488
 31
0.0
 11
-52.37450200049337
 21
182.8245974425847
 31
0.0
 11
-52.4605630194138
 21
182.7752080458829
 31
0.0
 11
-52.61670823850655
 21
182.7182239777153
 31
0.0
 11
-52.77079474465069
 21
182.7000044408134
 31
0.0
  0
SPLINE
  5
273
330
1F
100
AcDbEntity
  8
0
  6
Continuous
 62
     7
100
AcDbSpline
210
0.0
220
0.0
230
1.0
 70
     8
 71
     3
 72
     9
 73
     5
 74
     3
 42
0.000000001
 43
0.0000000001
 44
0.00000001
 40
0.0
 40
0.0
 40
0.0
 40
0.0
 40
0.3795479185351823
 40
0.6865098310256401
 40
0.6865098310256401
 40
0.6865098310256401
 40
0.6865098310256401
 10
-55.87496045977841
 20
183.0512434179906
 30
0.0
 10
-55.79157239732061
 20
182.9499463159962
 30
0.0
 10
-55.64074367159282
 20
182.7667245222509
 30
0.0
 10
-55.40986407111735
 20
182.7206195397612
 30
0.0
 10
-55.3066299399261
 20
182.7000044408134
 30
0.0
 11
-55.87496045977841
 21
183.0512434179906
 31
0.0
 11
-55.60032785288173
 21
182.7892633510978
 31
0.0
 11
-55.3066299399261
 21
182.7000044408134
 31
0.0
  0
SPLINE
  5
274
330
1F
100
AcDbEntity
  8
0
  6
Continuous
 62
     7
100
AcDbSpline
210
0.0
220
0.0
230
1.0
 70
     8
 71
     3
 72
     9
 73
     5
 74
     3
 42
0.000000001
 43
0.0000000001
 44
0.00000001
 40
0.0
 40
0.0
 40
0.0
 40
0.0
 40
0.3069619124904412
 40
0.6865098310256432
 40
0.6865098310256432
 40
0.6865098310256432
 40
0.6865098310256432
 10
-55.3066299399261
 20
188.2000044408134
 30
0.0
 10
-55.40986407111733
 20
188.1793893418656
 30
0.0
 10
-55.64074367159284
 20
188.1332843593759
 30
0.0
 10
-55.79157239732059
 20
187.9500625656305
 30
0.0
 10
-55.87496045977841
 20
187.8487654636362
 30
0.0
 11
-55.3066299399261
 21
188.2000044408134
 31
0.0
 11
-55.60032785288173
 21
188.110745530529
 31
0.0
 11
-55.87496045977841
 21
187.8487654636362
 31
0.0
  0
SPLINE
  5
275
330
1F
100
AcDbEntity
  8
0
  6
Continuous
 62
     7
100
AcDbSpline
210
0.0
220
0.0
230
1.0
 70
     8
 71
     3
 72
     9
 73
     5
 74
     3
 42
0.000000001
 43
0.0000000001
 44
0.00000001
 40
0.0
 40
0.0
 40
0.0
 40
0.0
 40
0.0333597508638052
 40
0.06695727915269
 40
0.06695727915269
 40
0.06695727915269
 40
0.06695727915269
 10
-136.7121476435271
 20
184.4500044408134
 30
0.0
 10
-136.7009729650848
 20
184.4494235622589
 30
0.0
 10
-136.6785439617269
 20
184.4482576452403
 30
0.0
 10
-136.6574687578023
 20
184.4404917540747
 30
0.0
 10
-136.6468937373916
 20
184.436595009818
 30
0.0
 11
-136.7121476435271
 21
184.4500044408134
 31
0.0
 11
-136.6789596595036
 21
184.4466234999259
 31
0.0
 11
-136.6468937373916
 21
184.436595009818
 31
0.0
  0
SPLINE
  5
276
330
1F
100
AcDbEntity
  8
0
  6
Continuous
 62
     7
100
AcDbSpline
210
0.0
220
0.0
230
1.0
 70
     8
 71
     3
 72
     9
 73
     5
 74
     3
 42
0.000000001
 43
0.0000000001
 44
0.00000001
 40
0.0
 40
0.0
 40
0.0
 40
0.0
 40
0.0335975282888576
 40
0.066957279152694
 40
0.066957279152694
 40
0.066957279152694
 40
0.066957279152694
 10
-136.6468937373916
 20
186.4634138718088
 30
0.0
 10
-136.6574687578022
 20
186.4595171275519
 30
0.0
 10
-136.6785439617269
 20
186.4517512363867
 30
0.0
 10
-136.7009729650848
 20
186.4505853193679
 30
0.0
 10
-136.7121476435271
 20
186.4500044408134
 30
0.0
 11
-136.6468937373916
 21
186.4634138718088
 31
0.0
 11
-136.6789596595035
 21
186.4533853817009
 31
0.0
 11
-136.7121476435271
 21
186.4500044408134
 31
0.0
  0
SPLINE
  5
277
330
1F
100
AcDbEntity
  8
0
  6
Continuous
 62
     7
100
AcDbSpline
210
0.0
220
0.0
230
1.0
 70
     8
 71
     3
 72
    19
 73
    15
 74
    13
 42
0.000000001
 43
0.0000000001
 44
0.00000001
 40
0.0
 40
0.0
 40
0.0
 40
0.0
 40
0.9982633362992286
 40
2.112324715076024
 40
3.331157407110024
 40
4.627849426923776
 40
5.965736467156571
 40
7.303520074519243
 40
8.59991303573084
 40
9.818285886852626
 40
10.93178873756075
 40
11.92949027735468
 40
12.82356909768145
 40
13.65459067216265
 40
13.65459067216265
 40
13.65459067216265
 40
13.65459067216265
 10
-49.40527181079486
 20
270.5728970178634
 30
0.0
 10
-49.52127126963691
 20
270.8864256660391
 30
0.0
 10
-49.76672605076426
 20
271.5498521317123
 30
0.0
 10
-49.83259996092272
 20
272.6719094594677
 30
0.0
 10
-49.71283586249194
 20
273.8783512718717
 30
0.0
 10
-49.38433328788547
 20
275.1259000531978
 30
0.0
 10
-48.87219271033809
 20
276.3510802147252
 30
0.0
 10
-48.19863663760137
 20
277.4958398489711
 30
0.0
 10
-47.39670072516759
 20
278.5048241519853
 30
0.0
 10
-46.50470236642428
 20
279.3287282863506
 30
0.0
 10
-45.56200531043901
 20
279.9309812872899
 30
0.0
 10
-44.61407315837811
 20
280.2712219367386
 30
0.0
 10
-43.68501716735546
 20
280.3553406985371
 30
0.0
 10
-43.1395947804406
 20
280.1546808206705
 30
0.0
 10
-42.87685194546037
 20
280.0580182146543
 30
0.0
 11
-49.40527181079486
 21
270.5728970178634
 31
0.0
 11
-49.70777928558834
 21
271.5242218367832
 31
0.0
 11
-49.80245280555683
 21
272.6342532197134
 31
0.0
 11
-49.68454663998079
 21
273.8473695645605
 31
0.0
 11
-49.35997068182712
 21
275.1027821030499
 31
0.0
 11
-48.84498751133425
 21
276.3375833283141
 31
0.0
 11
-48.1654039302247
 21
277.4898988820521
 31
0.0
 11
-47.35527205055219
 21
278.5019863516676
 31
0.0
 11
-46.45518775894992
 21
279.3231323014431
 31
0.0
 11
-45.51025291836437
 21
279.9121881082904
 31
0.0
 11
-44.56781753963477
 21
280.2396387406282
 31
0.0
 11
-43.67510642833151
 21
280.2890737262136
 31
0.0
 11
-42.87685194546037
 21
280.0580182146543
 31
0.0
  0
SPLINE
  5
278
330
1F
100
AcDbEntity
  8
0
  6
Continuous
 62
     7
100
AcDbSpline
210
0.0
220
0.0
230
1.0
 70
     8
 71
     3
 72
    19
 73
    15
 74
    13
 42
0.000000001
 43
0.0000000001
 44
0.00000001
 40
0.0
 40
0.0
 40
0.0
 40
0.0
 40
0.9982633362991223
 40
2.112324715075974
 40
3.331157407109974
 40
4.627849426923669
 40
5.965736467156461
 40
7.303520074519179
 40
8.59991303573078
 40
9.818285886852566
 40
10.93178873756065
 40
11.92949027735457
 40
12.82356909768135
 40
13.65459067216256
 40
13.65459067216256
 40
13.65459067216256
 40
13.65459067216256
 10
-54.17824258380405
 20
272.9593824043681
 30
0.0
 10
-54.2942420426461
 20
273.2729110525437
 30
0.0
 10
-54.53969682377348
 20
273.936337518217
 30
0.0
 10
-54.60557073393192
 20
275.0583948459724
 30
0.0
 10
-54.48580663550112
 20
276.2648366583763
 30
0.0
 10
-54.15730406089462
 20
277.5123854397024
 30
0.0
 10
-53.6451634833473
 20
278.7375656012298
 30
0.0
 10
-52.97160741061059
 20
279.8823252354757
 30
0.0
 10
-52.16967149817675
 20
280.89130953849
 30
0.0
 10
-51.27767313943352
 20
281.7152136728553
 30
0.0
 10
-50.33497608344821
 20
282.3174666737945
 30
0.0
 10
-49.3870439313873
 20
282.6577073232431
 30
0.0
 10
-48.45798794036466
 20
282.7418260850418
 30
0.0
 10
-47.9125655534498
 20
282.541166207175
 30
0.0
 10
-47.64982271846958
 20
282.4445036011589
 30
0.0
 11
-54.17824258380405
 21
272.9593824043681
 31
0.0
 11
-54.48075005859754
 21
273.9107072232878
 31
0.0
 11
-54.57542357856602
 21
275.0207386062181
 31
0.0
 11
-54.45751741298997
 21
276.2338549510652
 31
0.0
 11
-54.13294145483631
 21
277.4892674895545
 31
0.0
 11
-53.61795828434344
 21
278.7240687148187
 31
0.0
 11
-52.9383747032339
 21
279.8763842685568
 31
0.0
 11
-52.12824282356139
 21
280.8884717381723
 31
0.0
 11
-51.22815853195912
 21
281.7096176879478
 31
0.0
 11
-50.28322369137357
 21
282.298673494795
 31
0.0
 11
-49.34078831264397
 21
282.6261241271327
 31
0.0
 11
-48.44807720134071
 21
282.6755591127183
 31
0.0
 11
-47.64982271846958
 21
282.4445036011589
 31
0.0
  0
SPLINE
  5
279
330
1F
100
AcDbEntity
  8
0
  6
Continuous
 62
     7
100
AcDbSpline
210
0.0
220
0.0
230
1.0
 70
     8
 71
     3
 72
    11
 73
     7
 74
     5
 42
0.000000001
 43
0.0000000001
 44
0.00000001
 40
0.0
 40
0.0
 40
0.0
 40
0.0
 40
0.0907875709801778
 40
0.1980166540893107
 40
0.3143633435171239
 40
0.4290955794485162
 40
0.4290955794485162
 40
0.4290955794485162
 40
0.4290955794485162
 10
-49.39302203577631
 20
268.9106755325671
 30
0.0
 10
-49.40169147929613
 20
268.9400275538143
 30
0.0
 10
-49.4206003763496
 20
269.0040472126382
 30
0.0
 10
-49.4027696963619
 20
269.1100209113656
 30
0.0
 10
-49.3626433730071
 20
269.2164758461897
 30
0.0
 10
-49.31437939001849
 20
269.2771289839674
 30
0.0
 10
-49.29041599277861
 20
269.3072436694636
 30
0.0
 11
-49.39302203577631
 21
268.9106755325671
 31
0.0
 11
-49.41269460845096
 21
268.9993060766511
 31
0.0
 11
-49.40010402847618
 21
269.1057934212662
 31
0.0
 11
-49.35716478696781
 21
269.2139265532273
 31
0.0
 11
-49.29041599277861
 21
269.3072436694636
 31
0.0
  0
SPLINE
  5
27A
330
1F
100
AcDbEntity
  8
0
  6
Continuous
 62
     7
100
AcDbSpline
210
0.0
220
0.0
230
1.0
 70
     8
 71
     3
 72
    21
 73
    17
 74
    15
 42
0.000000001
 43
0.0000000001
 44
0.00000001
 40
0.0
 40
0.0
 40
0.0
 40
0.0
 40
0.8965950111752283
 40
1.729693787835202
 40
2.560715367843424
 40
3.45479419216568
 40
4.452495729687379
 40
5.565998578810758
 40
6.784371428757161
 40
8.080764389038432
 40
9.418547995674185
 40
10.75643503548561
 40
12.05312705551182
 40
13.27195974789541
 40
14.38602112356894
 40
15.38428445791228
 40
15.38428445791228
 40
15.38428445791228
 40
15.38428445791228
 10
-45.6040825226514
 20
280.7545567677092
 30
0.0
 10
-45.75269350819579
 20
281.0168747022203
 30
0.0
 10
-46.03939095962737
 20
281.5229333925208
 30
0.0
 10
-46.74366742276001
 20
282.0491848431779
 30
0.0
 10
-47.58035742154729
 20
282.2863270275775
 30
0.0
 10
-48.50121703179083
 20
282.2199791924521
 30
0.0
 10
-49.45170593319546
 20
281.8741951413348
 30
0.0
 10
-50.39360011233315
 20
281.2736828902578
 30
0.0
 10
-51.28584442205604
 20
280.4492454975224
 30
0.0
 10
-52.08770786670517
 20
279.4404183141144
 30
0.0
 10
-52.7612843656022
 20
278.2956143919803
 30
0.0
 10
-53.27341944407411
 20
277.0704461524343
 30
0.0
 10
-53.60192343094851
 20
275.822894307734
 30
0.0
 10
-53.72168718586493
 20
274.6164532478076
 30
0.0
 10
-53.65581336107745
 20
273.49439574748
 30
0.0
 10
-53.41035857042146
 20
272.8309693039619
 30
0.0
 10
-53.29435910732086
 20
272.5174406661265
 30
0.0
 11
-45.6040825226514
 21
280.7545567677092
 31
0.0
 11
-46.10070417607288
 21
281.5010482702122
 31
0.0
 11
-46.76593924198639
 21
282.0025618629173
 31
0.0
 11
-47.56419372485753
 21
282.2336173744766
 31
0.0
 11
-48.45690483616079
 21
282.1841823888911
 31
0.0
 11
-49.39934021489039
 21
281.8567317565534
 31
0.0
 11
-50.34427505547593
 21
281.2676759497062
 31
0.0
 11
-51.24435934707821
 21
280.4465299999306
 31
0.0
 11
-52.05449122675072
 21
279.4344425303152
 31
0.0
 11
-52.73407480786026
 21
278.2821269765772
 31
0.0
 11
-53.24905797835313
 21
277.0473257513129
 31
0.0
 11
-53.5736339365068
 21
275.7919132128235
 31
0.0
 11
-53.69154010208285
 21
274.5787968679765
 31
0.0
 11
-53.59686658211437
 21
273.4687654850462
 31
0.0
 11
-53.29435910732086
 21
272.5174406661265
 31
0.0
  0
SPLINE
  5
27B
330
1F
100
AcDbEntity
  8
0
  6
Continuous
 62
     7
100
AcDbSpline
210
0.0
220
0.0
230
1.0
 70
     8
 71
     3
 72
    11
 73
     7
 74
     5
 42
0.000000001
 43
0.0000000001
 44
0.00000001
 40
0.0
 40
0.0
 40
0.0
 40
0.0
 40
0.6408507367253223
 40
1.328911174790078
 40
2.066961445570131
 40
2.853695805425732
 40
2.853695805425732
 40
2.853695805425732
 40
2.853695805425732
 10
-46.56536709573508
 20
279.7249172550114
 30
0.0
 10
-46.77721107496146
 20
279.6933575284851
 30
0.0
 10
-47.21650499058627
 20
279.6279131428056
 30
0.0
 10
-47.86376439147068
 20
279.3792908129321
 30
0.0
 10
-48.51705110937279
 20
279.032280706977
 30
0.0
 10
-48.92383515823202
 20
278.7262714097445
 30
0.0
 10
-49.13372118099214
 20
278.5683815456533
 30
0.0
 11
-46.56536709573508
 21
279.7249172550114
 31
0.0
 11
-47.19551507505037
 21
279.608284530178
 31
0.0
 11
-47.84216120226088
 21
279.3731761398603
 31
0.0
 11
-48.49251714160589
 21
279.0242415379391
 31
0.0
 11
-49.13372118099214
 21
278.5683815456533
 31
0.0
  0
SPLINE
  5
27C
330
1F
100
AcDbEntity
  8
0
  6
Continuous
 62
     7
100
AcDbSpline
210
0.0
220
0.0
230
1.0
 70
     8
 71
     3
 72
    21
 73
    17
 74
    15
 42
0.000000001
 43
0.0000000001
 44
0.00000001
 40
0.0
 40
0.0
 40
0.0
 40
0.0
 40
0.862347494012793
 40
1.667045965320308
 40
2.498067545397351
 40
3.392146369809562
 40
4.389847907409608
 40
5.503350756593592
 40
6.721723606584158
 40
8.018116566896254
 40
9.355900173551007
 40
10.69378721336939
 40
11.99047923339384
 40
13.20931192580233
 40
14.32337330158561
 40
15.32163663604842
 40
15.32163663604842
 40
15.32163663604842
 40
15.32163663604842
 10
-40.8586208407707
 20
278.4251673437552
 30
0.0
 10
-41.00596406776489
 20
278.6747673152726
 30
0.0
 10
-41.29080044716947
 20
279.1572811785769
 30
0.0
 10
-41.97996388009267
 20
279.6651932989191
 30
0.0
 10
-42.80739293873418
 20
279.8998823875833
 30
0.0
 10
-43.7282443036954
 20
279.8334811423832
 30
0.0
 10
-44.67873577721046
 20
279.4877137518125
 30
0.0
 10
-45.62062914872919
 20
278.8871962689274
 30
0.0
 10
-46.51287370591073
 20
278.0627604788625
 30
0.0
 10
-47.31473707768475
 20
277.0539328232171
 30
0.0
 10
-47.98831359714936
 20
275.9091290341794
 30
0.0
 10
-48.50044867010227
 20
274.6839607587991
 30
0.0
 10
-48.82895265840151
 20
273.4364089232943
 30
0.0
 10
-48.9487164129152
 20
272.229967861056
 30
0.0
 10
-48.88284258811797
 20
271.1079103611742
 30
0.0
 10
-48.63738779743068
 20
270.444483917524
 30
0.0
 10
-48.52138833431167
 20
270.1309552796218
 30
0.0
 11
-40.8586208407707
 21
278.4251673437552
 31
0.0
 11
-41.34749638650562
 21
279.1355502802649
 31
0.0
 11
-41.9929684689772
 21
279.6160764764127
 31
0.0
 11
-42.79122295184833
 21
279.8471319879721
 31
0.0
 11
-43.68393406315159
 21
279.7976970023865
 31
0.0
 11
-44.62636944188119
 21
279.4702463700488
 31
0.0
 11
-45.57130428246674
 21
278.8811905632015
 31
0.0
 11
-46.47138857406902
 21
278.060044613426
 31
0.0
 11
-47.28152045374154
 21
277.0479571438106
 31
0.0
 11
-47.96110403485108
 21
275.8956415900726
 31
0.0
 11
-48.47608720534394
 21
274.6608403648083
 31
0.0
 11
-48.8006631634976
 21
273.4054278263189
 31
0.0
 11
-48.91856932907365
 21
272.1923114814718
 31
0.0
 11
-48.82389580910517
 21
271.0822800985416
 31
0.0
 11
-48.52138833431167
 21
270.1309552796218
 31
0.0
  0
SPLINE
  5
27D
330
1F
100
AcDbEntity
  8
0
  6
Continuous
 62
     7
100
AcDbSpline
210
0.0
220
0.0
230
1.0
 70
     8
 71
     3
 72
    11
 73
     7
 74
     5
 42
0.000000001
 43
0.0000000001
 44
0.00000001
 40
0.0
 40
0.0
 40
0.0
 40
0.0
 40
0.9736968600002329
 40
1.960821557180102
 40
2.947371726730519
 40
3.919373136582619
 40
3.919373136582619
 40
3.919373136582619
 40
3.919373136582619
 10
-50.60295745523617
 20
277.0401988336624
 30
0.0
 10
-50.79176712255153
 20
276.7758660594837
 30
0.0
 10
-51.17199023813156
 20
276.2435552024195
 30
0.0
 10
-51.64295990710146
 20
275.379228264986
 30
0.0
 10
-52.0448900312247
 20
274.4813221396274
 30
0.0
 10
-52.23748993624359
 20
273.8569481494953
 30
0.0
 10
-52.33307453423717
 20
273.5470801788243
 30
0.0
 11
-50.60295745523617
 21
277.0401988336624
 31
0.0
 11
-51.1528903883225
 21
276.2366695279636
 31
0.0
 11
-51.63152585100289
 21
275.373348461638
 31
0.0
 11
-52.02793704539553
 21
274.4699441203163
 31
0.0
 11
-52.33307453423717
 21
273.5470801788243
 31
0.0
  0
SPLINE
  5
27E
330
1F
100
AcDbEntity
  8
0
  6
Continuous
 62
     7
100
AcDbSpline
210
0.0
220
0.0
230
1.0
 70
     8
 71
     3
 72
    17
 73
    13
 74
    11
 42
0.000000001
 43
0.0000000001
 44
0.00000001
 40
0.0
 40
0.0
 40
0.0
 40
0.0
 40
0.1667918684220094
 40
0.3510680805375
 40
0.5620129696273396
 40
0.799620687115895
 40
1.057406685806735
 40
1.325096862501818
 40
1.590800523821057
 40
1.842940634233676
 40
2.072229795526015
 40
2.273991316907616
 40
2.273991316907616
 40
2.273991316907616
 40
2.273991316907616
 10
-49.59967969694641
 20
278.8013608036304
 30
0.0
 10
-49.65309798589267
 20
278.8195131074823
 30
0.0
 10
-49.7655342618571
 20
278.8577205571082
 30
0.0
 10
-49.95627243751073
 20
278.8207628784529
 30
0.0
 10
-50.14567815933427
 20
278.7256951109404
 30
0.0
 10
-50.32742711237044
 20
278.5726856183924
 30
0.0
 10
-50.48904348017554
 20
278.3747605340226
 30
0.0
 10
-50.62006833442988
 20
278.144594292064
 30
0.0
 10
-50.71210158713343
 20
277.8978767140201
 30
0.0
 10
-50.75658505096529
 20
277.6522622371012
 30
0.0
 10
-50.75782142776729
 20
277.4208526224337
 30
0.0
 10
-50.71009087865491
 20
277.2843840131546
 30
0.0
 10
-50.68774967450216
 20
277.2205072708319
 30
0.0
 11
-49.59967969694641
 21
278.8013608036304
 31
0.0
 11
-49.76144927490817
 21
278.8419826351365
 31
0.0
 11
-49.9437774881295
 21
278.815259100748
 31
0.0
 11
-50.13353257260157
 21
278.7231138155553
 31
0.0
 11
-50.31704760560845
 21
278.5721844954308
 31
0.0
 11
-50.48110489094051
 21
278.3733407679201
 31
0.0
 11
-50.61388880100305
 21
278.1409048331852
 31
0.0
 11
-50.70583510455428
 21
277.8916172223864
 31
0.0
 11
-50.75032220931323
 21
277.6434327493699
 31
0.0
 11
-50.74414515027868
 21
277.4142268121739
 31
0.0
 11
-50.68774967450216
 21
277.2205072708319
 31
0.0
  0
SPLINE
  5
27F
330
1F
100
AcDbEntity
  8
0
  6
Continuous
 62
     7
100
AcDbSpline
210
0.0
220
0.0
230
1.0
 70
     8
 71
     3
 72
    11
 73
     7
 74
     5
 42
0.000000001
 43
0.0000000001
 44
0.00000001
 40
0.0
 40
0.0
 40
0.0
 40
0.0
 40
0.0907875709801747
 40
0.1980166540893068
 40
0.3143633435170672
 40
0.4290955794484553
 40
0.4290955794484553
 40
0.4290955794484553
 40
0.4290955794484553
 10
-55.0498762852687
 20
271.7391026573133
 30
0.0
 10
-55.05854572878852
 20
271.7684546785604
 30
0.0
 10
-55.07745462584194
 20
271.8324743373844
 30
0.0
 10
-55.05962394585431
 20
271.9384480361117
 30
0.0
 10
-55.01949762249945
 20
272.0449029709359
 30
0.0
 10
-54.97123363951088
 20
272.1055561087136
 30
0.0
 10
-54.947270242271
 20
272.1356707942098
 30
0.0
 11
-55.0498762852687
 21
271.7391026573133
 31
0.0
 11
-55.06954885794334
 21
271.8277332013973
 31
0.0
 11
-55.05695827796856
 21
271.9342205460124
 31
0.0
 11
-55.0140190364602
 21
272.0423536779734
 31
0.0
 11
-54.947270242271
 21
272.1356707942098
 31
0.0
  0
SPLINE
  5
280
330
1F
100
AcDbEntity
  8
0
  6
Continuous
 62
     7
100
AcDbSpline
210
0.0
220
0.0
230
1.0
 70
     8
 71
     3
 72
     9
 73
     5
 74
     3
 42
0.000000001
 43
0.0000000001
 44
0.00000001
 40
0.0
 40
0.0
 40
0.0
 40
0.0
 40
0.0416549372996863
 40
0.0864846866207385
 40
0.0864846866207385
 40
0.0864846866207385
 40
0.0864846866207385
 10
-37.18968358295226
 20
282.1063918632005
 30
0.0
 10
-37.17777840313488
 20
282.0988043851286
 30
0.0
 10
-37.15306068002154
 20
282.0830511199465
 30
0.0
 10
-37.13892041357688
 20
282.0573262326581
 30
0.0
 10
-37.1315907469855
 20
282.0439916084401
 30
0.0
 11
-37.18968358295226
 21
282.1063918632005
 31
0.0
 11
-37.15642182965659
 21
282.0813161835653
 31
0.0
 11
-37.1315907469855
 21
282.0439916084401
 31
0.0
  0
SPLINE
  5
281
330
1F
100
AcDbEntity
  8
0
  6
Continuous
 62
     7
100
AcDbSpline
210
0.0
220
0.0
230
1.0
 70
     8
 71
     3
 72
    11
 73
     7
 74
     5
 42
0.000000001
 43
0.0000000001
 44
0.00000001
 40
0.0
 40
0.0
 40
0.0
 40
0.0
 40
0.0752655409437746
 40
0.142035298952302
 40
0.2000419586742826
 40
0.2521888291677797
 40
0.2521888291677797
 40
0.2521888291677797
 40
0.2521888291677797
 10
-37.41349853322127
 20
282.0287039402574
 30
0.0
 10
-37.39535516291466
 20
282.0462306428448
 30
0.0
 10
-37.36111639119772
 20
282.0793056678751
 30
0.0
 10
-37.301621091482
 20
282.1105551777707
 30
0.0
 10
-37.24184683056178
 20
282.1237589814093
 30
0.0
 10
-37.20644355359842
 20
282.1119718962923
 30
0.0
 10
-37.18968358295226
 20
282.1063918632005
 30
0.0
 11
-37.41349853322127
 21
282.0287039402574
 31
0.0
 11
-37.35682073561657
 21
282.0782269505109
 31
0.0
 11
-37.29756992656396
 21
282.1090091306713
 31
0.0
 11
-37.24036970732747
 21
282.1186480148834
 31
0.0
 11
-37.18968358295226
 21
282.1063918632005
 31
0.0
  0
SPLINE
  5
282
330
1F
100
AcDbEntity
  8
0
  6
Continuous
 62
     7
100
AcDbSpline
210
0.0
220
0.0
230
1.0
 70
     8
 71
     3
 72
     9
 73
     5
 74
     3
 42
0.000000001
 43
0.0000000001
 44
0.00000001
 40
0.0
 40
0.0
 40
0.0
 40
0.0
 40
0.3095642542692582
 40
0.6346467117242708
 40
0.6346467117242708
 40
0.6346467117242708
 40
0.6346467117242708
 10
-45.03460707534562
 20
280.7604768828943
 30
0.0
 10
-44.94845078519029
 20
280.7029095800391
 30
0.0
 10
-44.77181925073441
 20
280.5848891898318
 30
0.0
 10
-44.5715200730656
 20
280.5139639189751
 30
0.0
 10
-44.46892165039638
 20
280.4776341704197
 30
0.0
 11
-45.03460707534562
 21
280.7604768828943
 31
0.0
 11
-44.77050710874522
 21
280.5989800232433
 31
0.0
 11
-44.46892165039638
 21
280.4776341704197
 31
0.0
  0
SPLINE
  5
283
330
1F
100
AcDbEntity
  8
0
  6
Continuous
 62
     7
100
AcDbSpline
210
0.0
220
0.0
230
1.0
 70
     8
 71
     3
 72
    21
 73
    17
 74
    15
 42
0.000000001
 43
0.0000000001
 44
0.00000001
 40
0.0
 40
0.0
 40
0.0
 40
0.0
 40
0.0142133786229065
 40
0.0291706517729553
 40
0.044880747389472
 40
0.061350681589629
 40
0.0770129264095055
 40
0.0963659993287495
 40
0.113154627745154
 40
0.1336582918986869
 40
0.1724142124930889
 40
0.2118833370616605
 40
0.2298649944256071
 40
0.2510150872526212
 40
0.2701989882613127
 40
0.288987221514388
 40
0.288987221514388
 40
0.288987221514388
 40
0.288987221514388
 10
-44.67810701750746
 20
280.9224613839191
 30
0.0
 10
-44.67996619746206
 20
280.9268248995577
 30
0.0
 10
-44.68378184770426
 20
280.9357803125943
 30
0.0
 10
-44.68759847557887
 20
280.9502941360081
 30
0.0
 10
-44.69018898679822
 20
280.9658072768166
 30
0.0
 10
-44.69133159646584
 20
280.9817375036133
 30
0.0
 10
-44.69120375824569
 20
280.9989122608839
 30
0.0
 10
-44.68973184021577
 20
281.0161378866837
 30
0.0
 10
-44.68678652754638
 20
281.0348005205765
 30
0.0
 10
-44.68114153572909
 20
281.0595342755887
 30
0.0
 10
-44.67064887215717
 20
281.0908203031642
 30
0.0
 10
-44.65685981985114
 20
281.1198616302213
 30
0.0
 10
-44.64362432109968
 20
281.1424862204743
 30
0.0
 10
-44.63279356358864
 20
281.1586420302075
 30
0.0
 10
-44.62085824636843
 20
281.1743490275343
 30
0.0
 10
-44.61240019335341
 20
281.1837715358882
 30
0.0
 10
-44.60821522781252
 20
281.1884336944615
 30
0.0
 11
-44.67810701750746
 21
280.9224613839191
 31
0.0
 11
-44.68336760864988
 21
280.9356654141878
 31
0.0
 11
-44.68731500706798
 21
280.9500924124288
 31
0.0
 11
-44.68990890314455
 21
280.9655868890628
 31
0.0
 11
-44.69112830213145
 21
280.9820116192657
 31
0.0
 11
-44.69103125811485
 21
280.9976735628078
 31
0.0
 11
-44.68941458187453
 21
281.0169589917931
 31
0.0
 11
-44.68681164421442
 21
281.0335446105922
 31
0.0
 11
-44.68226901781841
 21
281.0535387292582
 31
0.0
 11
-44.6700132623787
 21
281.0903058046701
 31
0.0
 11
-44.65310051858751
 21
281.1259677019114
 31
0.0
 11
-44.64401458532929
 21
281.1414849769064
 31
0.0
 11
-44.63224928775057
 21
281.1590606467253
 31
0.0
 11
-44.62057611990881
 21
281.1742842820622
 31
0.0
 11
-44.60821522781252
 21
281.1884336944615
 31
0.0
  0
SPLINE
  5
284
330
1F
100
AcDbEntity
  8
0
  6
Continuous
 62
     7
100
AcDbSpline
210
0.0
220
0.0
230
1.0
 70
     8
 71
     3
 72
     9
 73
     5
 74
     3
 42
0.000000001
 43
0.0000000001
 44
0.00000001
 40
0.0
 40
0.0
 40
0.0
 40
0.0
 40
0.2752194957744669
 40
0.5555549247462457
 40
0.5555549247462457
 40
0.5555549247462457
 40
0.5555549247462457
 10
-45.1679962664641
 20
280.6173609656988
 30
0.0
 10
-45.12451782161796
 20
280.5359816648952
 30
0.0
 10
-45.03675271385136
 20
280.3717103505028
 30
0.0
 10
-44.90583961010736
 20
280.2392024269063
 30
0.0
 10
-44.83978028135645
 20
280.1723383592092
 30
0.0
 11
-45.1679962664641
 21
280.6173609656988
 31
0.0
 11
-45.02697167812585
 21
280.381018339689
 31
0.0
 11
-44.83978028135645
 21
280.1723383592092
 31
0.0
  0
SPLINE
  5
285
330
1F
100
AcDbEntity
  8
0
  6
Continuous
 62
     7
100
AcDbSpline
210
0.0
220
0.0
230
1.0
 70
     8
 71
     3
 72
    23
 73
    19
 74
    17
 42
0.000000001
 43
0.0000000001
 44
0.00000001
 40
0.0
 40
0.0
 40
0.0
 40
0.0
 40
0.0187882333514126
 40
0.0379721343404654
 40
0.0591222311993264
 40
0.0771038844530057
 40
0.0968564810661666
 40
0.1165483632409615
 40
0.134436910507306
 40
0.1553649554606262
 40
0.1726593296210543
 40
0.1926571512100607
 40
0.2089887738454153
 40
0.2276723000524065
 40
0.2455343321223593
 40
0.2598522140592814
 40
0.2760714002049304
 40
0.2890227223074281
 40
0.2890227223074281
 40
0.2890227223074281
 40
0.2890227223074281
 10
-45.17390065276177
 20
281.4712764069361
 30
0.0
 10
-45.17808561428603
 20
281.4666142556831
 30
0.0
 10
-45.18654365918822
 20
281.4571917621847
 30
0.0
 10
-45.19847904170478
 20
281.4414846468367
 30
0.0
 10
-45.20930954292885
 20
281.4253293028124
 30
0.0
 10
-45.2192258649137
 20
281.4083783757417
 30
0.0
 10
-45.22794710577901
 20
281.3913260491635
 30
0.0
 10
-45.23562557512238
 20
281.37381256762
 30
0.0
 10
-45.24241706606315
 20
281.3555204865445
 30
0.0
 10
-45.24784058370755
 20
281.3376041215882
 30
0.0
 10
-45.2522620239088
 20
281.3186969767213
 30
0.0
 10
-45.25516287639478
 20
281.301041114123
 30
0.0
 10
-45.25683355786465
 20
281.2827664143737
 30
0.0
 10
-45.25709622372948
 20
281.2651217246777
 30
0.0
 10
-45.25582287781305
 20
281.2481848116831
 30
0.0
 10
-45.2530947440142
 20
281.2322726569231
 30
0.0
 10
-45.24933817517403
 20
281.2182170620488
 30
0.0
 10
-45.24549760995966
 20
281.2092744817219
 30
0.0
 10
-45.24379244245671
 20
281.2053040963938
 30
0.0
 11
-45.17390065276177
 21
281.4712764069361
 31
0.0
 11
-45.18626154485792
 21
281.4571269945369
 31
0.0
 11
-45.19793471269981
 21
281.4419033592
 31
0.0
 11
-45.2097000124437
 21
281.4243276859052
 31
0.0
 11
-45.21878594353437
 21
281.4088104143848
 31
0.0
 11
-45.22777885256038
 21
281.3912236958869
 31
0.0
 11
-45.23568289570989
 21
281.3731877226874
 31
0.0
 11
-45.24190414598551
 21
281.3564158364325
 31
0.0
 11
-45.24795444276641
 21
281.3363814417322
 31
0.0
 11
-45.25188148813136
 21
281.3195388265177
 31
0.0
 11
-45.25510000682377
 21
281.2998017042677
 31
0.0
 11
-45.25656863642547
 21
281.2835362496655
 31
0.0
 11
-45.25681372707885
 21
281.2648543317393
 31
0.0
 11
-45.25542349494307
 21
281.2470464850873
 31
0.0
 11
-45.25300043201722
 21
281.2329351249035
 31
0.0
 11
-45.24864758128295
 21
281.2173109471763
 31
0.0
 11
-45.24379244245671
 21
281.2053040963938
 31
0.0
  0
SPLINE
  5
286
330
1F
100
AcDbEntity
  8
0
  6
Continuous
 62
     7
100
AcDbSpline
210
0.0
220
0.0
230
1.0
 70
     8
 71
     3
 72
     9
 73
     5
 74
     3
 42
0.000000001
 43
0.0000000001
 44
0.00000001
 40
0.0
 40
0.0
 40
0.0
 40
0.0
 40
0.358708730338315
 40
0.7284870015665438
 40
0.7284870015665438
 40
0.7284870015665438
 40
0.7284870015665438
 10
-45.70590149617833
 20
281.7612023718402
 30
0.0
 10
-45.64723549517846
 20
281.6557324688888
 30
0.0
 10
-45.52809307883963
 20
281.4415379352712
 30
0.0
 10
-45.33951449227829
 20
281.2848423807454
 30
0.0
 10
-45.24379244245671
 20
281.2053040963938
 30
0.0
 11
-45.70590149617833
 21
281.7612023718402
 31
0.0
 11
-45.51306798438687
 21
281.4587338762263
 31
0.0
 11
-45.24379244245671
 21
281.2053040963938
 31
0.0
  0
SPLINE
  5
287
330
1F
100
AcDbEntity
  8
0
  6
Continuous
 62
     7
100
AcDbSpline
210
0.0
220
0.0
230
1.0
 70
     8
 71
     3
 72
    17
 73
    13
 74
    11
 42
0.000000001
 43
0.0000000001
 44
0.00000001
 40
0.0
 40
0.0
 40
0.0
 40
0.0
 40
0.5907251981933833
 40
1.226040082024158
 40
1.893336272881032
 40
2.574408448741739
 40
3.248840833507098
 40
3.897269677019564
 40
4.504706439094007
 40
5.064051675382685
 40
5.57950328686673
 40
6.068234422297928
 40
6.068234422297928
 40
6.068234422297928
 40
6.068234422297928
 10
-44.67810701750746
 20
280.9224613839191
 30
0.0
 10
-44.48548820769467
 20
280.8776866507621
 30
0.0
 10
-44.08571114774632
 20
280.7847574698474
 30
0.0
 10
-43.4481489478061
 20
280.8208180885062
 30
0.0
 10
-42.80182183714084
 20
280.9707922259689
 30
0.0
 10
-42.17973821084233
 20
281.2409149030148
 30
0.0
 10
-41.61946707687154
 20
281.6109746364623
 30
0.0
 10
-41.15398684394427
 20
282.060627264724
 30
0.0
 10
-40.80952847406822
 20
282.5650033715073
 30
0.0
 10
-40.61277458751269
 20
283.0943602602927
 30
0.0
 10
-40.5635353291907
 20
283.6271542030028
 30
0.0
 10
-40.67467984836887
 20
283.9463875483891
 30
0.0
 10
-40.72877338244544
 20
284.1017569513127
 30
0.0
 11
-44.67810701750746
 21
280.9224613839191
 31
0.0
 11
-44.09721416946915
 21
280.8151312536471
 31
0.0
 11
-43.46230148149522
 21
280.8377338722772
 31
0.0
 11
-42.81234909476304
 21
280.9888831366385
 31
0.0
 11
-42.18726087911128
 21
281.2592976909432
 31
0.0
 11
-41.62541476636277
 21
281.6323767542229
 31
0.0
 11
-41.16130439890127
 21
282.0852139571487
 31
0.0
 11
-40.8234252827254
 21
282.5900080968991
 31
0.0
 11
-40.63251988126028
 21
283.1157668088836
 31
0.0
 11
-40.60031074015913
 21
283.6302111126153
 31
0.0
 11
-40.72877338244544
 21
284.1017569513127
 31
0.0
  0
SPLINE
  5
288
330
1F
100
AcDbEntity
  8
0
  6
Continuous
 62
     7
100
AcDbSpline
210
0.0
220
0.0
230
1.0
 70
     8
 71
     3
 72
    15
 73
    11
 74
     9
 42
0.000000001
 43
0.0000000001
 44
0.00000001
 40
0.0
 40
0.0
 40
0.0
 40
0.0
 40
0.0161851889735078
 40
0.0331125021917645
 40
0.0531353573901901
 40
0.0701948508056621
 40
0.0928964246277392
 40
0.1121585014834556
 40
0.1376281423491899
 40
0.1588805820868007
 40
0.1588805820868007
 40
0.1588805820868007
 40
0.1588805820868007
 10
-41.80612212383468
 20
284.9862179682158
 30
0.0
 10
-41.81137775939199
 20
284.9875151641118
 30
0.0
 10
-41.82213001501411
 20
284.9901690209116
 30
0.0
 10
-41.84000557206465
 20
284.9899899199742
 30
0.0
 10
-41.85778753849068
 20
284.9867406988374
 30
0.0
 10
-41.87666205237775
 20
284.9801757039417
 30
0.0
 10
-41.89428281028137
 20
284.9712731012925
 30
0.0
 10
-41.91305331558158
 20
284.958860678116
 30
0.0
 10
-41.93015817241449
 20
284.9449329776073
 30
0.0
 10
-41.94104298413647
 20
284.9337839586901
 30
0.0
 10
-41.94599414630329
 20
284.9287126078339
 30
0.0
 11
-41.80612212383468
 21
284.9862179682158
 31
0.0
 11
-41.82198156909055
 21
284.9894488279222
 31
0.0
 11
-41.83890852183463
 21
284.9895599829794
 31
0.0
 11
-41.85861697468486
 21
284.9860256157556
 31
0.0
 11
-41.87475509718696
 21
284.9804950310754
 31
0.0
 11
-41.89506177489696
 21
284.9703461230179
 31
0.0
 11
-41.91116673545567
 21
284.9597792950679
 31
0.0
 11
-41.93088682820154
 21
284.9436603474655
 31
0.0
 11
-41.94599414630329
 21
284.9287126078339
 31
0.0
  0
SPLINE
  5
289
330
1F
100
AcDbEntity
  8
0
  6
Continuous
 62
     7
100
AcDbSpline
210
0.0
220
0.0
230
1.0
 70
     8
 71
     3
 72
    11
 73
     7
 74
     5
 42
0.000000001
 43
0.0000000001
 44
0.00000001
 40
0.0
 40
0.0
 40
0.0
 40
0.0
 40
0.0206301818014781
 40
0.0359197982414654
 40
0.052687082920882
 40
0.0693307316823922
 40
0.0693307316823922
 40
0.0693307316823922
 40
0.0693307316823922
 10
-41.75656786111631
 20
284.9404979392338
 30
0.0
 10
-41.75982711184809
 20
284.9465882540568
 30
0.0
 10
-41.76550189789181
 20
284.9571922677775
 30
0.0
 10
-41.77743446060262
 20
284.9702300951375
 30
0.0
 10
-41.79047729245402
 20
284.9802045752132
 30
0.0
 10
-41.8009200590476
 20
284.984218459415
 30
0.0
 10
-41.80612212383468
 20
284.9862179682158
 30
0.0
 11
-41.75656786111631
 21
284.9404979392338
 31
0.0
 11
-41.7671571972332
 21
284.9582030341735
 31
0.0
 11
-41.77740123863896
 21
284.9695534542987
 31
0.0
 11
-41.79088685776775
 21
284.9795173886806
 31
0.0
 11
-41.80612212383468
 21
284.9862179682158
 31
0.0
  0
SPLINE
  5
28A
330
1F
100
AcDbEntity
  8
0
  6
Continuous
 62
     7
100
AcDbSpline
210
0.0
220
0.0
230
1.0
 70
     8
 71
     3
 72
    25
 73
    21
 74
    19
 42
0.000000001
 43
0.0000000001
 44
0.00000001
 40
0.0
 40
0.0
 40
0.0
 40
0.0
 40
0.1538461859851087
 40
0.3328278744679239
 40
0.4889922936957382
 40
0.6718133182707283
 40
0.8505284763534957
 40
1.033627534554943
 40
1.245962003206826
 40
1.433362790006544
 40
1.98735207649523
 40
2.576390612189734
 40
3.215987910691188
 40
3.869594039244486
 40
4.185746043974985
 40
4.499336011244928
 40
4.797746500991417
 40
5.090616953264602
 40
5.605646842706145
 40
6.092823592153512
 40
6.092823592153512
 40
6.092823592153512
 40
6.092823592153512
 10
-45.70590149617833
 20
281.7612023718402
 30
0.0
 10
-45.72633511929966
 20
281.8082850212064
 30
0.0
 10
-45.77054081342916
 20
281.9101427225701
 30
0.0
 10
-45.81427718046546
 20
282.0677568652511
 30
0.0
 10
-45.84343348285788
 20
282.2381342257977
 30
0.0
 10
-45.85399571065604
 20
282.4107835904446
 30
0.0
 10
-45.84562088579503
 20
282.5924446156287
 30
0.0
 10
-45.81747291560469
 20
282.782057227665
 30
0.0
 10
-45.76923818025998
 20
282.9706555640135
 30
0.0
 10
-45.66136140327586
 20
283.2700326462038
 30
0.0
 10
-45.44313551073652
 20
283.6608453914662
 30
0.0
 10
-45.05194671657432
 20
284.1126615482276
 30
0.0
 10
-44.55841315140906
 20
284.5055742296353
 30
0.0
 10
-44.08437907582987
 20
284.7628557792382
 30
0.0
 10
-43.6850869235867
 20
284.9175225888563
 30
0.0
 10
-43.38781445682442
 20
285.004539556467
 30
0.0
 10
-43.09175884932901
 20
285.0646492710581
 30
0.0
 10
-42.72522587810079
 20
285.1054589640821
 30
0.0
 10
-42.28960301231284
 20
285.105350475282
 30
0.0
 10
-41.96426854070494
 20
285.0251861715292
 30
0.0
 10
-41.80612212383468
 20
284.9862179682158
 30
0.0
 11
-45.70590149617833
 21
281.7612023718402
 31
0.0
 11
-45.76411768573135
 21
281.9036085733694
 31
0.0
 11
-45.81314922259489
 21
282.0757432724623
 31
0.0
 11
-45.83935115331915
 21
282.2296938647356
 31
0.0
 11
-45.85077174715461
 21
282.4121578258528
 31
0.0
 11
-45.84271796635589
 21
282.5906914202812
 31
0.0
 11
-45.81604624875023
 21
282.7718374513837
 31
0.0
 11
-45.76375129238669
 21
282.9776314360079
 31
0.0
 11
-45.70041477001753
 21
283.1540047328114
 31
0.0
 11
-45.43400457234596
 21
283.6397307216036
 31
0.0
 11
-45.05096623691944
 21
284.0872215374567
 31
0.0
 11
-44.55185485736318
 21
284.4871872050185
 31
0.0
 11
-43.97767658902016
 21
284.7994695892492
 31
0.0
 11
-43.68283735512427
 21
284.9135832001479
 31
0.0
 11
-43.3818446534487
 21
285.0015721822279
 31
0.0
 11
-43.08932410008683
 21
285.0605683347331
 31
0.0
 11
-42.79829282348837
 21
285.0933387099993
 31
0.0
 11
-42.28334402391982
 21
285.0841998118963
 31
0.0
 11
-41.80612212383468
 21
284.9862179682158
 31
0.0
  0
SPLINE
  5
28B
330
1F
100
AcDbEntity
  8
0
  6
Continuous
 62
     7
100
AcDbSpline
210
0.0
220
0.0
230
1.0
 70
     8
 71
     3
 72
     9
 73
     5
 74
     3
 42
0.000000001
 43
0.0000000001
 44
0.00000001
 40
0.0
 40
0.0
 40
0.0
 40
0.0
 40
0.0108395009675135
 40
0.021696815265807
 40
0.021696815265807
 40
0.021696815265807
 40
0.021696815265807
 10
-41.52672203755631
 20
284.4890454338334
 30
0.0
 10
-41.53015855283817
 20
284.4901614252349
 30
0.0
 10
-41.53703723700504
 20
284.4923952229901
 30
0.0
 10
-41.54393218603183
 20
284.4945783003984
 30
0.0
 10
-41.54738249400523
 20
284.4956707257343
 30
0.0
 11
-41.52672203755631
 21
284.4890454338334
 31
0.0
 11
-41.53703564601481
 21
284.4923807392649
 31
0.0
 11
-41.54738249400523
 21
284.4956707257343
 31
0.0
  0
SPLINE
  5
28C
330
1F
100
AcDbEntity
  8
0
  6
Continuous
 62
     7
100
AcDbSpline
210
0.0
220
0.0
230
1.0
 70
     8
 71
     3
 72
    15
 73
    11
 74
     9
 42
0.000000001
 43
0.0000000001
 44
0.00000001
 40
0.0
 40
0.0
 40
0.0
 40
0.0
 40
0.0323129179009947
 40
0.0554629454543674
 40
0.0839845209974087
 40
0.1039924237906181
 40
0.1227721456608257
 40
0.1457378844481713
 40
0.1623758097551155
 40
0.1839666619024322
 40
0.1839666619024322
 40
0.1839666619024322
 40
0.1839666619024322
 10
-41.38030872135406
 20
284.6458698953593
 30
0.0
 10
-41.37269340613976
 20
284.6535103891366
 30
0.0
 10
-41.35962222295214
 20
284.6666247732521
 30
0.0
 10
-41.33708850792668
 20
284.6833548127432
 30
0.0
 10
-41.31621787719674
 20
284.6951981366517
 30
0.0
 10
-41.29513069969919
 20
284.703078758795
 30
0.0
 10
-41.27488407999927
 20
284.7072960736134
 30
0.0
 10
-41.25524887815316
 20
284.7072401272534
 30
0.0
 10
-41.2351250763537
 20
284.7025918082348
 30
0.0
 10
-41.22422644581986
 20
284.6958085325664
 30
0.0
 10
-41.21807111963213
 20
284.6919774673112
 30
0.0
 11
-41.38030872135406
 21
284.6458698953593
 31
0.0
 11
-41.35684842447998
 21
284.6680901295597
 31
0.0
 11
-41.33829266989901
 21
284.6819323740065
 31
0.0
 11
-41.31336816865104
 21
284.6957977824223
 31
0.0
 11
-41.294595515281
 21
284.7027190325646
 31
0.0
 11
-41.27618511874755
 21
284.7064251511192
 31
0.0
 11
-41.25322016187531
 21
284.7062352342109
 31
0.0
 11
-41.2370707186977
 21
284.7022332140373
 31
0.0
 11
-41.21807111963213
 21
284.6919774673112
 31
0.0
  0
SPLINE
  5
28D
330
1F
100
AcDbEntity
  8
0
  6
Continuous
 62
     7
100
AcDbSpline
210
0.0
220
0.0
230
1.0
 70
     8
 71
     3
 72
    11
 73
     7
 74
     5
 42
0.000000001
 43
0.0000000001
 44
0.00000001
 40
0.0
 40
0.0
 40
0.0
 40
0.0
 40
0.2142715952779796
 40
0.3926964392619539
 40
0.5679698023490221
 40
0.7740354230449332
 40
0.7740354230449332
 40
0.7740354230449332
 40
0.7740354230449332
 10
-41.21807111963213
 20
284.6919774673112
 30
0.0
 10
-41.16215886522898
 20
284.6473500144221
 30
0.0
 10
-41.05968825445127
 20
284.5655610861468
 30
0.0
 10
-40.93150127688109
 20
284.4255375318768
 30
0.0
 10
-40.81914856787568
 20
284.2758458736462
 30
0.0
 10
-40.76047762173928
 20
284.1628285585226
 30
0.0
 10
-40.72877338244544
 20
284.1017569513127
 30
0.0
 11
-41.21807111963213
 21
284.6919774673112
 31
0.0
 11
-41.05445536653504
 21
284.5536221199999
 31
0.0
 11
-40.93303827679785
 21
284.4228807123845
 31
0.0
 11
-40.82910401435861
 21
284.2817480751169
 31
0.0
 11
-40.72877338244544
 21
284.1017569513127
 31
0.0
  0
SPLINE
  5
28E
330
1F
100
AcDbEntity
  8
0
  6
Continuous
 62
     7
100
AcDbSpline
210
0.0
220
0.0
230
1.0
 70
     8
 71
     3
 72
    15
 73
    11
 74
     9
 42
0.000000001
 43
0.0000000001
 44
0.00000001
 40
0.0
 40
0.0
 40
0.0
 40
0.0
 40
0.6093629103604354
 40
1.21787468315914
 40
1.811059857291637
 40
2.376444217690124
 40
2.905534449958521
 40
3.395883941294847
 40
3.852912494855258
 40
4.290390699148646
 40
4.290390699148646
 40
4.290390699148646
 40
4.290390699148646
 10
-42.38283228033203
 20
279.8110083820901
 30
0.0
 10
-42.19066868059706
 20
279.8781131281427
 30
0.0
 10
-41.80660989371278
 20
280.0122289032657
 30
0.0
 10
-41.28428616455912
 20
280.3224690305908
 30
0.0
 10
-40.82674189891364
 20
280.6969497739115
 30
0.0
 10
-40.45867327005275
 20
281.1265148064406
 30
0.0
 10
-40.19621082734122
 20
281.5900493930537
 30
0.0
 10
-40.05724879011811
 20
282.0655779368378
 30
0.0
 10
-40.03884139282466
 20
282.5369868683688
 30
0.0
 10
-40.1409363579824
 20
282.8196653957201
 30
0.0
 10
-40.19086815273124
 20
282.9579155451713
 30
0.0
 11
-42.38283228033203
 21
279.8110083820901
 31
0.0
 11
-41.81455652438087
 21
280.0309761450144
 31
0.0
 11
-41.28895009262182
 21
280.3376102189089
 31
0.0
 11
-40.831944738996
 21
280.7157831392328
 31
0.0
 11
-40.46608663713297
 21
281.1468368772533
 31
0.0
 11
-40.20942655421511
 21
281.6095053083906
 31
0.0
 11
-40.07462614878311
 21
282.0809620689914
 31
0.0
 11
-40.06833692801018
 21
282.5379473526804
 31
0.0
 11
-40.19086815273124
 21
282.9579155451713
 31
0.0
  0
SPLINE
  5
28F
330
1F
100
AcDbEntity
  8
0
  6
Continuous
 62
     7
100
AcDbSpline
210
0.0
220
0.0
230
1.0
 70
     8
 71
     3
 72
    13
 73
     9
 74
     7
 42
0.000000001
 43
0.0000000001
 44
0.00000001
 40
0.0
 40
0.0
 40
0.0
 40
0.0
 40
0.7244950236862245
 40
1.426434855856476
 40
2.085628457438084
 40
2.690868996199571
 40
3.24474979777605
 40
3.766557278711461
 40
3.766557278711461
 40
3.766557278711461
 40
3.766557278711461
 10
-41.593447662297
 20
279.3608576895151
 30
0.0
 10
-41.37851307316999
 20
279.472587967923
 30
0.0
 10
-40.95533530841575
 20
279.692570116778
 30
0.0
 10
-40.42806640414903
 20
280.1554012596878
 30
0.0
 10
-40.02628441041604
 20
280.680544133662
 30
0.0
 10
-39.78856306768673
 20
281.2432442155498
 30
0.0
 10
-39.71606867759461
 20
281.8155762671551
 30
0.0
 10
-39.83269000588805
 20
282.1588807539667
 30
0.0
 10
-39.88926205341042
 20
282.3254149169111
 30
0.0
 11
-41.593447662297
 21
279.3608576895151
 31
0.0
 11
-40.96478241002345
 21
279.7209591127162
 31
0.0
 11
-40.43481060930345
 21
280.1812301398089
 31
0.0
 11
-40.04055007470144
 21
280.7095244112483
 31
0.0
 11
-39.80953561602963
 21
281.2689423530525
 31
0.0
 11
-39.7579051893218
 21
281.8204115247972
 31
0.0
 11
-39.88926205341042
 21
282.3254149169111
 31
0.0
  0
SPLINE
  5
290
330
1F
100
AcDbEntity
  8
0
  6
Continuous
 62
     7
100
AcDbSpline
210
0.0
220
0.0
230
1.0
 70
     8
 71
     3
 72
    15
 73
    11
 74
     9
 42
0.000000001
 43
0.0000000001
 44
0.00000001
 40
0.0
 40
0.0
 40
0.0
 40
0.0
 40
0.4461722676019078
 40
0.8676454831452673
 40
1.26615731223417
 40
1.641571503320296
 40
1.997492450247701
 40
2.344735320725366
 40
2.395997172968209
 40
2.44729317069101
 40
2.44729317069101
 40
2.44729317069101
 40
2.44729317069101
 10
-40.73350423146643
 20
280.8168501413076
 30
0.0
 10
-40.63617603521992
 20
280.9296776712614
 30
0.0
 10
-40.44690751431102
 20
281.1490868717059
 30
0.0
 10
-40.23625682137268
 20
281.5178726337442
 30
0.0
 10
-40.09768830064547
 20
281.8935953409254
 30
0.0
 10
-40.04016412843954
 20
282.2687586959506
 30
0.0
 10
-40.0655144457681
 20
282.6305453226552
 30
0.0
 10
-40.14433023829481
 20
282.872453817507
 30
0.0
 10
-40.21041885712235
 20
283.0070527579232
 30
0.0
 10
-40.22688195433545
 20
283.0370195731446
 30
0.0
 10
-40.23511624954894
 20
283.0520079660796
 30
0.0
 11
-40.73350423146643
 21
280.8168501413076
 31
0.0
 11
-40.45339765556934
 21
281.1641396389526
 31
0.0
 11
-40.24336650974089
 21
281.5295525405895
 31
0.0
 11
-40.1083500486848
 21
281.9044955140912
 31
0.0
 11
-40.05351252419501
 21
282.275882995417
 31
0.0
 11
-40.08030529854113
 21
282.6307940666321
 31
0.0
 11
-40.18809829214054
 21
282.9608823647674
 31
0.0
 11
-40.21076220046853
 21
283.0068619798191
 31
0.0
 11
-40.23511624954894
 21
283.0520079660796
 31
0.0
  0
SPLINE
  5
291
330
1F
100
AcDbEntity
  8
0
  6
Continuous
 62
     7
100
AcDbSpline
210
0.0
220
0.0
230
1.0
 70
     8
 71
     3
 72
    21
 73
    17
 74
    15
 42
0.000000001
 43
0.0000000001
 44
0.00000001
 40
0.0
 40
0.0
 40
0.0
 40
0.0
 40
0.9005948297604826
 40
1.869569489258375
 40
2.950899711953485
 40
4.157767902914482
 40
5.478293923703384
 40
6.883338486990333
 40
8.333163350265245
 40
9.782988213540056
 40
11.18803277682696
 40
12.50855879761598
 40
13.71542698857692
 40
14.79675721127202
 40
15.76573187076993
 40
16.66632670053043
 40
16.66632670053043
 40
16.66632670053043
 40
16.66632670053043
 10
-46.50704395253761
 20
266.7224952017226
 30
0.0
 10
-46.76168662708617
 20
266.8874458532985
 30
0.0
 10
-47.29030632373185
 20
267.2298714436587
 30
0.0
 10
-47.82135711455513
 20
268.0901896922347
 30
0.0
 10
-48.1425460864635
 20
269.1334228190851
 30
0.0
 10
-48.23309029812433
 20
270.3424818452144
 30
0.0
 10
-48.0984299571113
 20
271.6516463104685
 30
0.0
 10
-47.74471119903875
 20
273.0030143577586
 30
0.0
 10
-47.18973297979193
 20
274.331060642224
 30
0.0
 10
-46.46028288376768
 20
275.5718709883008
 30
0.0
 10
-45.59141970077907
 20
276.6656668231328
 30
0.0
 10
-44.62488433318383
 20
277.5588937750958
 30
0.0
 10
-43.60331058528366
 20
278.2118938214446
 30
0.0
 10
-42.57601070065839
 20
278.5808825200282
 30
0.0
 10
-41.56912562730362
 20
278.6722328365153
 30
0.0
 10
-40.97801333702804
 20
278.4547924334148
 30
0.0
 10
-40.69326721103816
 20
278.3500486847215
 30
0.0
 11
-46.50704395253761
 21
266.7224952017226
 31
0.0
 11
-47.22638008652422
 21
267.2643684188841
 31
0.0
 11
-47.7638829294219
 21
268.0705958057563
 31
0.0
 11
-48.09259823874402
 21
269.1007517615869
 31
0.0
 11
-48.19604464034249
 21
270.3031783367388
 31
0.0
 11
-48.06903302656015
 21
271.6175820101524
 31
0.0
 11
-47.71793415833597
 21
272.9780524435811
 31
0.0
 11
-47.16035182925399
 21
274.3163700669551
 31
0.0
 11
-46.424247128004
 21
275.565426504245
 31
0.0
 11
-45.54653010219558
 21
276.6625878588815
 31
0.0
 11
-44.57121413173408
 21
277.5528393539556
 31
0.0
 11
-43.54720503065347
 21
278.1915381777679
 31
0.0
 11
-42.52585108039573
 21
278.5466595038087
 31
0.0
 11
-41.55836746515939
 21
278.6003936616138
 31
0.0
 11
-40.69326721103816
 21
278.3500486847215
 31
0.0
  0
SPLINE
  5
292
330
1F
100
AcDbEntity
  8
0
  6
Continuous
 62
     7
100
AcDbSpline
210
0.0
220
0.0
230
1.0
 70
     8
 71
     3
 72
    11
 73
     7
 74
     5
 42
0.000000001
 43
0.0000000001
 44
0.00000001
 40
0.0
 40
0.0
 40
0.0
 40
0.0
 40
0.2754579977232971
 40
0.548792008654043
 40
0.7155654260196357
 40
0.8828247278382642
 40
0.8828247278382642
 40
0.8828247278382642
 40
0.8828247278382642
 10
-47.40688858137295
 20
267.240740315578
 30
0.0
 10
-47.49540872937477
 20
267.2655005850272
 30
0.0
 10
-47.67176646428089
 20
267.3148302184069
 30
0.0
 10
-47.89071422549115
 20
267.4113127168465
 30
0.0
 10
-48.06917801987309
 20
267.5072361600559
 30
0.0
 10
-48.16232148311033
 20
267.5683416180781
 30
0.0
 10
-48.20896095411061
 20
267.5989387953466
 30
0.0
 11
-47.40688858137295
 21
267.240740315578
 31
0.0
 11
-47.67032289059134
 21
267.3212354915845
 31
0.0
 11
-47.92125751491071
 21
267.4296019829091
 31
0.0
 11
-48.06778738304507
 21
267.5092409855611
 31
0.0
 11
-48.20896095411061
 21
267.5989387953466
 31
0.0
  0
SPLINE
  5
293
330
1F
100
AcDbEntity
  8
0
  6
Continuous
 62
     7
100
AcDbSpline
210
0.0
220
0.0
230
1.0
 70
     8
 71
     3
 72
     9
 73
     5
 74
     3
 42
0.000000001
 43
0.0000000001
 44
0.00000001
 40
0.0
 40
0.0
 40
0.0
 40
0.0
 40
0.4138039099729587
 40
0.8174327381854039
 40
0.8174327381854039
 40
0.8174327381854039
 40
0.8174327381854039
 10
-42.0719289857114
 20
267.730784781733
 30
0.0
 10
-42.0845522041971
 20
267.5933703247476
 30
0.0
 10
-42.1094882271489
 20
267.3219203126222
 30
0.0
 10
-42.11333292893558
 20
267.0493578762642
 30
0.0
 10
-42.11523134129615
 20
266.9147730327889
 30
0.0
 11
-42.0719289857114
 21
267.730784781733
 31
0.0
 11
-42.10439371543637
 21
267.3182563373239
 31
0.0
 11
-42.11523134129615
 21
266.9147730327889
 31
0.0
  0
SPLINE
  5
294
330
1F
100
AcDbEntity
  8
0
  6
Continuous
 62
     7
100
AcDbSpline
210
0.0
220
0.0
230
1.0
 70
     8
 71
     3
 72
    13
 73
     9
 74
     7
 42
0.000000001
 43
0.0000000001
 44
0.00000001
 40
0.0
 40
0.0
 40
0.0
 40
0.0
 40
0.0387073770301376
 40
0.0753059592797226
 40
0.1132242368910465
 40
0.1534697751371449
 40
0.1974432796190577
 40
0.2453352185796236
 40
0.2453352185796236
 40
0.2453352185796236
 40
0.2453352185796236
 10
-51.15502922651416
 20
272.2098810007551
 30
0.0
 10
-51.14389227891003
 20
272.2031393872497
 30
0.0
 10
-51.12222513716055
 20
272.1900234356149
 30
0.0
 10
-51.09993605379108
 20
272.1582110537342
 30
0.0
 10
-51.09022926649862
 20
272.1203798266598
 30
0.0
 10
-51.09475267037143
 20
272.0792148500988
 30
0.0
 10
-51.11190142450376
 20
272.0379028496537
 30
0.0
 10
-51.1315406707899
 20
272.0142275983627
 30
0.0
 10
-51.14177914668802
 20
272.0018850542767
 30
0.0
 11
-51.15502922651416
 21
272.2098810007551
 31
0.0
 11
-51.12342617303983
 21
272.1875313160952
 31
0.0
 11
-51.10221402606231
 21
272.1577068080126
 31
0.0
 11
-51.0926632016868
 21
272.1210110626045
 31
0.0
 11
-51.09639875525058
 21
272.0809392623713
 31
0.0
 11
-51.11316040851464
 21
272.0402856493089
 31
0.0
 11
-51.14177914668802
 21
272.0018850542767
 31
0.0
  0
SPLINE
  5
295
330
1F
100
AcDbEntity
  8
0
  6
Continuous
 62
     7
100
AcDbSpline
210
0.0
220
0.0
230
1.0
 70
     8
 71
     3
 72
     9
 73
     5
 74
     3
 42
0.000000001
 43
0.0000000001
 44
0.00000001
 40
0.0
 40
0.0
 40
0.0
 40
0.0
 40
0.0370595392341601
 40
0.0752364941124249
 40
0.0752364941124249
 40
0.0752364941124249
 40
0.0752364941124249
 10
-49.72756558431492
 20
271.2947782730902
 30
0.0
 10
-49.71874453148092
 20
271.3034830229655
 30
0.0
 10
-49.7008364413279
 20
271.3211549723666
 30
0.0
 10
-49.67954147854675
 20
271.3345590393695
 30
0.0
 10
-49.66873585430682
 20
271.3413606036299
 30
0.0
 11
-49.72756558431492
 21
271.2947782730902
 31
0.0
 11
-49.70028066532882
 21
271.3198570030789
 31
0.0
 11
-49.66873585430682
 21
271.3413606036299
 31
0.0
  0
SPLINE
  5
296
330
1F
100
AcDbEntity
  8
0
  6
Continuous
 62
     7
100
AcDbSpline
210
0.0
220
0.0
230
1.0
 70
     8
 71
     3
 72
     9
 73
     5
 74
     3
 42
0.000000001
 43
0.0000000001
 44
0.00000001
 40
0.0
 40
0.0
 40
0.0
 40
0.0
 40
0.1415177574579675
 40
0.2789424761876726
 40
0.2789424761876726
 40
0.2789424761876726
 40
0.2789424761876726
 10
-52.99222211537679
 20
271.6112312705346
 30
0.0
 10
-52.97230744203713
 20
271.6542539326859
 30
0.0
 10
-52.93305405908433
 20
271.7390549267249
 30
0.0
 10
-52.87292103979856
 20
271.810560588994
 30
0.0
 10
-52.84329570052363
 20
271.8457887983681
 30
0.0
 11
-52.99222211537679
 21
271.6112312705346
 31
0.0
 11
-52.927103865577
 21
271.7368771597236
 31
0.0
 11
-52.84329570052363
 21
271.8457887983681
 31
0.0
  0
SPLINE
  5
297
330
1F
100
AcDbEntity
  8
0
  6
Continuous
 62
     7
100
AcDbSpline
210
0.0
220
0.0
230
1.0
 70
     8
 71
     3
 72
    17
 73
    13
 74
    11
 42
0.000000001
 43
0.0000000001
 44
0.00000001
 40
0.0
 40
0.0
 40
0.0
 40
0.0
 40
0.9778718246364014
 40
2.01924057045268
 40
3.167907110503161
 40
4.441438681793952
 40
5.834710142936123
 40
7.32601379073618
 40
8.882589730686332
 40
10.46523073857299
 40
12.03232120200544
 40
13.54367223257781
 40
13.54367223257781
 40
13.54367223257781
 40
13.54367223257781
 10
-30.25711595982654
 20
274.4736138456155
 30
0.0
 10
-30.56467203073143
 20
274.5902239606997
 30
0.0
 10
-31.19975495621482
 20
274.8310161139466
 30
0.0
 10
-32.28001403224028
 20
274.779666293906
 30
0.0
 10
-33.3920098540206
 20
274.4467107691894
 30
0.0
 10
-34.51091024169533
 20
273.8224330138415
 30
0.0
 10
-35.59073620900614
 20
272.9449039415338
 30
0.0
 10
-36.59106728206545
 20
271.8469934416329
 30
0.0
 10
-37.47294714351206
 20
270.5745649188932
 30
0.0
 10
-38.194946991391
 20
269.1784947204592
 30
0.0
 10
-38.74863512928567
 20
267.7194533077427
 30
0.0
 10
-38.94477726432592
 20
266.7106334755601
 30
0.0
 10
-39.04107261430372
 20
266.2153565960291
 30
0.0
 11
-30.25711595982654
 21
274.4736138456155
 31
0.0
 11
-31.1923265044778
 21
274.7592964603684
 31
0.0
 11
-32.2335487747661
 21
274.741830493981
 31
0.0
 11
-33.33677712653363
 21
274.4219523550964
 31
0.0
 11
-34.45538457756719
 21
273.8131830779508
 31
0.0
 11
-35.54209434268462
 21
272.9412500240883
 31
0.0
 11
-36.55097812730303
 21
271.843005935117
 31
0.0
 11
-37.43939596682003
 21
270.5648657240033
 31
0.0
 11
-38.16980065461345
 21
269.1608495021026
 31
0.0
 11
-38.7113214098614
 21
267.6902959370863
 31
0.0
 11
-39.04107261430372
 21
266.2153565960291
 31
0.0
  0
SPLINE
  5
298
330
1F
100
AcDbEntity
  8
0
  6
Continuous
 62
     7
100
AcDbSpline
210
0.0
220
0.0
230
1.0
 70
     8
 71
     3
 72
    11
 73
     7
 74
     5
 42
0.000000001
 43
0.0000000001
 44
0.00000001
 40
0.0
 40
0.0
 40
0.0
 40
0.0
 40
0.9033472177849232
 40
1.8871363245008
 40
2.955377954177018
 40
4.102711745126814
 40
4.102711745126814
 40
4.102711745126814
 40
4.102711745126814
 10
-35.3623615809646
 20
276.512605387117
 30
0.0
 10
-35.66165878883848
 20
276.4705262950959
 30
0.0
 10
-36.28690522686392
 20
276.3826210080422
 30
0.0
 10
-37.20235333132572
 20
275.9954697852925
 30
0.0
 10
-38.12073017723209
 20
275.4461077721205
 30
0.0
 10
-38.67933378218194
 20
274.9607995426134
 30
0.0
 10
-38.96860616501598
 20
274.7094830950913
 30
0.0
 11
-35.3623615809646
 21
276.512605387117
 31
0.0
 11
-36.25092869347856
 21
276.3498642271355
 31
0.0
 11
-37.16548387299029
 21
275.9873316979634
 31
0.0
 11
-38.08003905250202
 21
275.4353090476237
 31
0.0
 11
-38.96860616501598
 21
274.7094830950913
 31
0.0
  0
SPLINE
  5
299
330
1F
100
AcDbEntity
  8
0
  6
Continuous
 62
     7
100
AcDbSpline
210
0.0
220
0.0
230
1.0
 70
     8
 71
     3
 72
    11
 73
     7
 74
     5
 42
0.000000001
 43
0.0000000001
 44
0.00000001
 40
0.0
 40
0.0
 40
0.0
 40
0.0
 40
0.9033472177849232
 40
1.887136324500807
 40
2.955377954177018
 40
4.102711745126825
 40
4.102711745126825
 40
4.102711745126825
 40
4.102711745126825
 10
-34.47847810448143
 20
276.0706636488754
 30
0.0
 10
-34.77777531235532
 20
276.0285845568544
 30
0.0
 10
-35.40302175038074
 20
275.9406792698004
 30
0.0
 10
-36.31846985484256
 20
275.5535280470509
 30
0.0
 10
-37.23684670074893
 20
275.0041660338789
 30
0.0
 10
-37.79545030569879
 20
274.5188578043719
 30
0.0
 10
-38.08472268853282
 20
274.2675413568497
 30
0.0
 11
-34.47847810448143
 21
276.0706636488754
 31
0.0
 11
-35.36704521699539
 21
275.9079224888939
 31
0.0
 11
-36.28160039650713
 21
275.5453899597218
 31
0.0
 11
-37.19615557601885
 21
274.9933673093821
 31
0.0
 11
-38.08472268853282
 21
274.2675413568497
 31
0.0
  0
SPLINE
  5
29A
330
1F
100
AcDbEntity
  8
0
  6
Continuous
 62
     7
100
AcDbSpline
210
0.0
220
0.0
230
1.0
 70
     8
 71
     3
 72
    11
 73
     7
 74
     5
 42
0.000000001
 43
0.0000000001
 44
0.00000001
 40
0.0
 40
0.0
 40
0.0
 40
0.0
 40
0.982324440311767
 40
2.045294761635014
 40
2.711530395694281
 40
3.40144379217301
 40
3.40144379217301
 40
3.40144379217301
 40
3.40144379217301
 10
-42.38595182694246
 20
264.6143492805047
 30
0.0
 10
-42.47029708845714
 20
264.9315181886183
 30
0.0
 10
-42.64591208839292
 20
265.5918946212475
 30
0.0
 10
-42.69298989533394
 20
266.500143152673
 30
0.0
 10
-42.66479209239784
 20
267.3063655245395
 30
0.0
 10
-42.60634188744817
 20
267.7549269798253
 30
0.0
 10
-42.57660652023643
 20
267.9831235489954
 30
0.0
 11
-42.38595182694246
 21
264.6143492805047
 31
0.0
 11
-42.60666919922465
 21
265.5715562325011
 31
0.0
 11
-42.68091676624539
 21
266.6319303203143
 31
0.0
 11
-42.65477645046484
 21
267.2976529390579
 31
0.0
 11
-42.57660652023643
 21
267.9831235489954
 31
0.0
  0
SPLINE
  5
29B
330
1F
100
AcDbEntity
  8
0
  6
Continuous
 62
     7
100
AcDbSpline
210
0.0
220
0.0
230
1.0
 70
     8
 71
     3
 72
     9
 73
     5
 74
     3
 42
0.000000001
 43
0.0000000001
 44
0.00000001
 40
0.0
 40
0.0
 40
0.0
 40
0.0
 40
0.6160632953587493
 40
1.202218205301086
 40
1.202218205301086
 40
1.202218205301086
 40
1.202218205301086
 10
-41.57414531178205
 20
265.2586304719817
 30
0.0
 10
-41.54673602409084
 20
265.0547730988603
 30
0.0
 10
-41.49324808381984
 20
264.6569551395326
 30
0.0
 10
-41.38034084811537
 20
264.2718039536174
 30
0.0
 10
-41.32529165516263
 20
264.0840191946147
 30
0.0
 11
-41.57414531178205
 21
265.2586304719817
 31
0.0
 11
-41.47631431414028
 21
264.6503845674239
 31
0.0
 11
-41.32529165516263
 21
264.0840191946147
 31
0.0
  0
SPLINE
  5
29C
330
1F
100
AcDbEntity
  8
0
  6
Continuous
 62
     7
100
AcDbSpline
210
0.0
220
0.0
230
1.0
 70
     8
 71
     3
 72
    11
 73
     7
 74
     5
 42
0.000000001
 43
0.0000000001
 44
0.00000001
 40
0.0
 40
0.0
 40
0.0
 40
0.0
 40
1.135408186657507
 40
2.1672265871932
 40
3.113105864149124
 40
4.009350900817715
 40
4.009350900817715
 40
4.009350900817715
 40
4.009350900817715
 10
-39.09927157762914
 20
264.0211936049053
 30
0.0
 10
-39.03921009093644
 20
263.6460049764036
 30
0.0
 10
-38.92456685662676
 20
262.9298583281677
 30
0.0
 10
-38.50485220557647
 20
261.9716658005149
 30
0.0
 10
-37.92591354032294
 20
261.1848315520862
 30
0.0
 10
-37.40005179289906
 20
260.8583012361704
 30
0.0
 10
-37.14420533052591
 20
260.6994351042168
 30
0.0
 11
-39.09927157762914
 21
264.0211936049053
 31
0.0
 11
-38.8703559391318
 21
262.9091012616435
 31
0.0
 11
-38.45740116827285
 21
261.9635233570306
 31
0.0
 11
-37.87510758940601
 21
261.2181229273307
 31
0.0
 11
-37.14420533052591
 21
260.6994351042168
 31
0.0
  0
SPLINE
  5
29D
330
1F
100
AcDbEntity
  8
0
  6
Continuous
 62
     7
100
AcDbSpline
210
0.0
220
0.0
230
1.0
 70
     8
 71
     3
 72
    21
 73
    17
 74
    15
 42
0.000000001
 43
0.0000000001
 44
0.00000001
 40
0.0
 40
0.0
 40
0.0
 40
0.0
 40
1.052947842495419
 40
2.18399518211463
 40
3.443944633446359
 40
4.848863164853313
 40
6.415247658958604
 40
8.08472320433518
 40
9.809903099926649
 40
11.53704430622458
 40
13.21218825629665
 40
14.7872798562644
 40
16.22689476631875
 40
17.51629683608106
 40
18.67090547522415
 40
19.74333056463205
 40
19.74333056463205
 40
19.74333056463205
 40
19.74333056463205
 10
-42.09395279883174
 20
263.1743088383697
 30
0.0
 10
-42.3918998246351
 20
263.3666513395644
 30
0.0
 10
-43.00989326344508
 20
263.7656028276071
 30
0.0
 10
-43.63599006252518
 20
264.7649501505521
 30
0.0
 10
-44.02032033754939
 20
265.9776341576055
 30
0.0
 10
-44.13935426330251
 20
267.3941140088181
 30
0.0
 10
-43.99268923282595
 20
268.9405384183924
 30
0.0
 10
-43.58251591230862
 20
270.5488819981936
 30
0.0
 10
-42.93045670627757
 20
272.1325185690295
 30
0.0
 10
-42.0683075473526
 20
273.6144692347306
 30
0.0
 10
-41.03792094773553
 20
274.9226342871156
 30
0.0
 10
-39.88931079822733
 20
275.9923284570903
 30
0.0
 10
-38.67366962526562
 20
276.7755776507041
 30
0.0
 10
-37.45024795097237
 20
277.219545255795
 30
0.0
 10
-36.25041607250482
 20
277.3316167590668
 30
0.0
 10
-35.54604997235482
 20
277.0730162930027
 30
0.0
 10
-35.20686342813238
 20
276.9484875797684
 30
0.0
 11
-42.09395279883174
 21
263.1743088383697
 31
0.0
 11
-42.93643609910151
 21
263.8059108168994
 31
0.0
 11
-43.56946006721961
 21
264.7432201346819
 31
0.0
 11
-43.96208677520477
 21
265.94043226504
 31
0.0
 11
-44.09513032861847
 21
267.3390371015009
 31
0.0
 11
-43.9572198575412
 21
268.8993387004775
 31
0.0
 11
-43.55047702395233
 21
270.5185078866496
 31
0.0
 11
-42.89550451580799
 21
272.1145206257237
 31
0.0
 11
-42.02548399956267
 21
273.6065263307415
 31
0.0
 11
-40.98448752275249
 21
274.9189415002018
 31
0.0
 11
-39.82525129820934
 21
275.9852833393956
 31
0.0
 11
-38.60649939200395
 21
276.7515306074983
 31
0.0
 11
-37.38997181292739
 21
277.1788692832246
 31
0.0
 11
-36.23729592622519
 21
277.2456482279193
 31
0.0
 11
-35.20686342813238
 21
276.9484875797684
 31
0.0
  0
SPLINE
  5
29E
330
1F
100
AcDbEntity
  8
0
  6
Continuous
 62
     7
100
AcDbSpline
210
0.0
220
0.0
230
1.0
 70
    11
 71
     3
 72
    37
 73
    33
 74
    31
 42
0.000000001
 43
0.0000000001
 44
0.00000001
 40
0.0
 40
0.0
 40
0.0
 40
0.0
 40
1.053263451616924
 40
2.227528199868662
 40
3.539371098686774
 40
4.977248328431942
 40
6.510124992485816
 40
8.094897436455655
 40
9.682574927483694
 40
11.22384960155545
 40
12.6746349185501
 40
14.00214362731974
 40
14.64977548293914
 40
15.25940541771259
 40
15.83429926571414
 40
16.38047338010329
 40
17.35344779157559
 40
18.33113384814536
 40
19.38546763260815
 40
20.56173025819533
 40
21.87277143910159
 40
23.30526345184539
 40
24.82786649235165
 40
26.39816126759939
 40
27.96845604285819
 40
29.49105908341087
 40
30.92355109627794
 40
32.23459227745857
 40
33.41085490358861
 40
34.46518868906522
 40
35.44287474795561
 40
36.41584915252928
 40
36.41584915252928
 40
36.41584915252928
 40
36.41584915252928
 10
-20.64330711772273
 20
253.2926662175833
 30
0.0
 10
-20.86251096719247
 20
253.5703341810024
 30
0.0
 10
-21.32610130732374
 20
254.1575692298264
 30
0.0
 10
-21.67159770785742
 20
255.3099683536873
 30
0.0
 10
-21.79350804950182
 20
256.6159603610973
 30
0.0
 10
-21.65931718998045
 20
258.0455966450909
 30
0.0
 10
-21.28699656018732
 20
259.5227236521835
 30
0.0
 10
-20.69187321198341
 20
260.9794198725228
 30
0.0
 10
-19.90378776062301
 20
262.3443053979593
 30
0.0
 10
-18.96046740740009
 20
263.5515143350664
 30
0.0
 10
-17.90755534060235
 20
264.5423433364874
 30
0.0
 10
-16.94409422837609
 20
265.1708516461974
 30
0.0
 10
-16.15114603464825
 20
265.5130697964662
 30
0.0
 10
-15.56175800608743
 20
265.680371354356
 30
0.0
 10
-14.98710902836696
 20
265.7545102873953
 30
0.0
 10
-14.28682105240998
 20
265.7290163911005
 30
0.0
 10
-13.47231172442196
 20
265.4792045745686
 30
0.0
 10
-12.67262511192574
 20
264.8401783210476
 30
0.0
 10
-12.09795215354128
 20
263.9184731130428
 30
0.0
 10
-11.76260014161267
 20
262.7747359999178
 30
0.0
 10
-11.67063750013289
 20
261.463241626522
 30
0.0
 10
-11.82183127087854
 20
260.0429914926307
 30
0.0
 10
-12.2077170381353
 20
258.5793207105086
 30
0.0
 10
-12.80970818632916
 20
257.1410513439948
 30
0.0
 10
-13.59913968318663
 20
255.7964836846765
 30
0.0
 10
-14.53850803175337
 20
254.6096068688464
 30
0.0
 10
-15.58411674635724
 20
253.6363883213108
 30
0.0
 10
-16.68808147721001
 20
252.9234321657646
 30
0.0
 10
-17.80558489455138
 20
252.5042903439789
 30
0.0
 10
-18.88357804141099
 20
252.4147913863502
 30
0.0
 10
-19.88874060853352
 20
252.6583118961905
 30
0.0
 10
-20.39219029282501
 20
253.081555549059
 30
0.0
 10
-20.64330711772273
 20
253.2926662175833
 30
0.0
 11
-20.64330711772273
 21
253.2926662175833
 31
0.0
 11
-21.24588519004565
 21
254.1565317066381
 31
0.0
 11
-21.62125816874149
 21
255.2691829648758
 31
0.0
 11
-21.75053768638927
 21
256.5746402015138
 31
0.0
 11
-21.62722127372247
 21
258.0072196897044
 31
0.0
 11
-21.25751137280307
 21
259.4948437874966
 31
0.0
 11
-20.66001142423411
 21
260.962664454549
 31
0.0
 11
-19.86478210925312
 21
262.3368297110311
 31
0.0
 11
-18.91183583956657
 21
263.5482012593536
 31
0.0
 11
-17.84911777513245
 21
264.5358288975327
 31
0.0
 11
-16.73009789669911
 21
265.2500234675471
 31
0.0
 11
-16.13451254864219
 21
265.5043954662299
 31
0.0
 11
-15.54733885280997
 21
265.6683335900425
 31
0.0
 11
-14.97686967182221
 21
265.7395224246982
 31
0.0
 11
-14.43116192283792
 21
265.716956607353
 31
0.0
 11
-13.50301482889702
 21
265.4250282289736
 31
0.0
 11
-12.73394649801329
 21
264.821369444245
 31
0.0
 11
-12.16186964812548
 21
263.935735316872
 31
0.0
 11
-11.81498318964612
 21
262.8117853402929
 31
0.0
 11
-11.71038878389671
 21
261.5049230718222
 31
0.0
 11
-11.85324047723866
 21
260.079571620222
 31
0.0
 11
-12.23649831885153
 21
258.6059931710088
 31
0.0
 11
-12.84126773841242
 21
257.1568280215342
 31
0.0
 11
-13.63773820625554
 21
255.8035133962007
 31
0.0
 11
-14.58664626065841
 21
254.6127600533825
 31
0.0
 11
-15.64121640593343
 21
253.6432678277488
 31
0.0
 11
-16.74946286415965
 21
252.9428259912659
 31
0.0
 11
-17.85675472051049
 21
252.545965172102
 31
0.0
 11
-18.90850813234155
 21
252.4722461755885
 31
0.0
 11
-19.85287615865468
 21
252.7253055694583
 31
0.0
 11
-20.64330711772273
 21
253.2926662175833
 31
0.0
  0
SPLINE
  5
29F
330
1F
100
AcDbEntity
  8
0
  6
Continuous
 62
     7
100
AcDbSpline
210
0.0
220
0.0
230
1.0
 70
    11
 71
     3
 72
    35
 73
    31
 74
    29
 42
0.000000001
 43
0.0000000001
 44
0.00000001
 40
0.0
 40
0.0
 40
0.0
 40
0.0
 40
1.072425087147024
 40
2.227033735761204
 40
3.516435804816799
 40
4.956050713472414
 40
6.531142311584805
 40
8.206286258168761
 40
9.93342745751626
 40
11.65860734659539
 40
13.32808288880384
 40
14.8944673810617
 40
16.29938591083882
 40
17.55933536076514
 40
18.69038270758359
 40
19.74333055518422
 40
20.81018905187221
 40
21.95805134951385
 40
23.23901176553475
 40
24.66868638979683
 40
26.23300182756164
 40
27.89743922934608
 40
29.61492405943277
 40
31.33240888952463
 40
32.99684629134074
 40
34.56116172921588
 40
35.99083635377175
 40
37.27179677049385
 40
38.41965907026209
 40
39.48651755967001
 40
39.48651755967001
 40
39.48651755967001
 40
39.48651755967001
 10
-13.2865532113494
 20
265.9883324713769
 30
0.0
 10
-13.62573975450996
 20
266.1128611850417
 30
0.0
 10
-14.33010585013489
 20
266.371461676741
 30
0.0
 10
-15.5299377394666
 20
266.2593901396266
 30
0.0
 10
-16.75335938622622
 20
265.815422586121
 30
0.0
 10
-17.96900067377042
 20
265.0321731577063
 30
0.0
 10
-19.1176103252912
 20
263.9624799763567
 30
0.0
 10
-20.14799893381299
 20
262.6543109011156
 30
0.0
 10
-21.01014025961738
 20
261.1723758817762
 30
0.0
 10
-21.66222849923631
 20
259.588681301112
 30
0.0
 10
-22.07229903695713
 20
257.9805431203431
 30
0.0
 10
-22.2193102776664
 20
256.4334268863228
 30
0.0
 10
-22.09916603331799
 20
255.0191657907691
 30
0.0
 10
-21.71836050611653
 20
253.7994382906636
 30
0.0
 10
-21.08093575650301
 20
252.8227276097813
 30
0.0
 10
-20.199783840135
 20
252.1515088741167
 30
0.0
 10
-19.12719423978812
 20
251.8502602472913
 30
0.0
 10
-17.94607980041283
 20
251.9351808664547
 30
0.0
 10
-16.72548803804318
 20
252.3795574050987
 30
0.0
 10
-15.51645805093085
 20
253.1508292753871
 30
0.0
 10
-14.37113555449606
 20
254.2096587382923
 30
0.0
 10
-13.34196993710085
 20
255.5051801446793
 30
0.0
 10
-12.47782308639224
 20
256.9751212185129
 30
0.0
 10
-11.82039516867161
 20
258.5483296455414
 30
0.0
 10
-11.40137247476037
 20
260.1491850340459
 30
0.0
 10
-11.24185225399478
 20
261.7000404119807
 30
0.0
 10
-11.34911220066647
 20
263.1323105668856
 30
0.0
 10
-11.72959762242882
 20
264.3681405258577
 30
0.0
 10
-12.35868853588839
 20
265.3872867911022
 30
0.0
 10
-12.98489958150121
 20
265.7929293927359
 30
0.0
 10
-13.2865532113494
 20
265.9883324713769
 30
0.0
 11
-13.2865532113494
 21
265.9883324713769
 31
0.0
 11
-14.31698570944222
 21
266.2854931195279
 31
0.0
 11
-15.46966159614441
 21
266.2187141748331
 31
0.0
 11
-16.68618917522097
 21
265.7913754991067
 31
0.0
 11
-17.90494108142636
 21
265.025128231004
 31
0.0
 11
-19.06417730596952
 21
263.9587863918102
 31
0.0
 11
-20.1051737827797
 21
262.6463712223499
 31
0.0
 11
-20.97519429902502
 21
261.1543655173322
 31
0.0
 11
-21.63016680716934
 21
259.558352778258
 31
0.0
 11
-22.03690964075823
 21
257.9391835920859
 31
0.0
 11
-22.1748201118355
 21
256.3788819931093
 31
0.0
 11
-22.04177655842181
 21
254.9802771566485
 31
0.0
 11
-21.64914985043663
 21
253.7830650262904
 31
0.0
 11
-21.01612588231853
 21
252.8457557085079
 31
0.0
 11
-20.17364258204876
 21
252.2141537299782
 31
0.0
 11
-19.14883151178207
 21
251.9175912188904
 31
0.0
 11
-18.00273553680979
 21
251.9812455289057
 31
0.0
 11
-16.7928239341968
 21
252.4019277151384
 31
0.0
 11
-15.57976699907053
 21
253.1585401679623
 31
0.0
 11
-14.42439269560074
 21
254.2131457852039
 31
0.0
 11
-13.38463560348921
 21
255.5128600053118
 31
0.0
 11
-12.51263464970078
 21
256.9925114771784
 31
0.0
 11
-11.8521140444806
 21
258.5779031233291
 31
0.0
 11
-11.43619692366118
 21
260.189537329083
 31
0.0
 11
-11.28573701194979
 21
261.7466001422038
 31
0.0
 11
-11.40828121076643
 21
263.1710131619992
 31
0.0
 11
-11.79768242334802
 21
264.3913517558292
 31
0.0
 11
-12.43441656031911
 21
265.3464211218163
 31
0.0
 11
-13.2865532113494
 21
265.9883324713769
 31
0.0
  0
SPLINE
  5
2A0
330
1F
100
AcDbEntity
  8
0
  6
Continuous
 62
     7
100
AcDbSpline
210
0.0
220
0.0
230
1.0
 70
     8
 71
     3
 72
    25
 73
    21
 74
    19
 42
0.000000001
 43
0.0000000001
 44
0.00000001
 40
0.0
 40
0.0
 40
0.0
 40
0.0
 40
0.2613271126542577
 40
0.521010741118604
 40
1.457724086676345
 40
2.463915558287157
 40
3.584779679725232
 40
4.834609800536561
 40
6.22808171900567
 40
7.713264506772491
 40
9.248002467687346
 40
10.78448523211083
 40
12.27471069133663
 40
13.67592854153679
 40
14.95662492121222
 40
16.10369039800096
 40
17.13084224659287
 40
18.08488275329481
 40
18.34456638175739
 40
18.60589349441333
 40
18.60589349441333
 40
18.60589349441333
 40
18.60589349441333
 10
-14.8129020101162
 20
265.7426255637889
 30
0.0
 10
-14.7294004207609
 20
265.7175316919714
 30
0.0
 10
-14.56292238640147
 20
265.6675017532846
 30
0.0
 10
-14.11782417844491
 20
265.4703564581142
 30
0.0
 10
-13.5186563382587
 20
265.016946934274
 30
0.0
 10
-12.95242275112885
 20
264.1475291233436
 30
0.0
 10
-12.61339713113377
 20
263.0626105257458
 30
0.0
 10
-12.50659663417509
 20
261.8044174279437
 30
0.0
 10
-12.63735367061497
 20
260.4281036601489
 30
0.0
 10
-13.00216599250723
 20
258.9974790214587
 30
0.0
 10
-13.58226127873805
 20
257.588622593898
 30
0.0
 10
-14.34925807984867
 20
256.2702276466101
 30
0.0
 10
-15.26580872803461
 20
255.1066437651014
 30
0.0
 10
-16.28794179538193
 20
254.1544330294775
 30
0.0
 10
-17.3683509451821
 20
253.4596066999933
 30
0.0
 10
-18.46002303565428
 20
253.0584089628754
 30
0.0
 10
-19.51682652427316
 20
252.9786912995515
 30
0.0
 10
-20.25298634775779
 20
253.187116570074
 30
0.0
 10
-20.68279819417052
 20
253.4277490555958
 30
0.0
 10
-20.82270984376906
 20
253.5309124844796
 30
0.0
 10
-20.89288633523842
 20
253.5826569135444
 30
0.0
 11
-14.8129020101162
 21
265.7426255637889
 31
0.0
 11
-14.56425736142999
 21
265.6622035354503
 31
0.0
 11
-14.32642437596557
 21
265.5579391632476
 31
0.0
 11
-13.57694247897233
 21
264.9960594810491
 31
0.0
 11
-13.01379778006207
 21
264.1622193736711
 31
0.0
 11
-12.66451298139994
 21
263.097167023937
 31
0.0
 11
-12.54615605401243
 21
261.852953630462
 31
0.0
 11
-12.66884264191883
 21
260.4648931170868
 31
0.0
 11
-13.03068529257908
 21
259.024463386531
 31
0.0
 11
-13.61335564073345
 21
257.6046338719002
 31
0.0
 11
-14.38733493115947
 21
256.2773300953584
 31
0.0
 11
-15.31341621247762
 21
255.1097919251243
 31
0.0
 11
-16.34468480184394
 21
254.1611631461012
 31
0.0
 11
-17.42889915996172
 21
253.4795016153865
 31
0.0
 11
-18.5111347335558
 21
253.099336689578
 31
0.0
 11
-19.53656717821944
 21
253.0399294465703
 31
0.0
 11
-20.453250634315
 21
253.3042866465487
 31
0.0
 11
-20.67936192335581
 21
253.4319944115986
 31
0.0
 11
-20.89288633523842
 21
253.5826569135444
 31
0.0
  0
SPLINE
  5
2A1
330
1F
100
AcDbEntity
  8
0
  6
Continuous
 62
     7
100
AcDbSpline
210
0.0
220
0.0
230
1.0
 70
     8
 71
     3
 72
    13
 73
     9
 74
     7
 42
0.000000001
 43
0.0000000001
 44
0.00000001
 40
0.0
 40
0.0
 40
0.0
 40
0.0
 40
0.4098117634312416
 40
0.8601315696309769
 40
1.338289321977424
 40
1.827562421604293
 40
2.30975662734116
 40
2.767606616478141
 40
2.767606616478141
 40
2.767606616478141
 40
2.767606616478141
 10
-33.27639657646432
 20
257.2045736667839
 30
0.0
 10
-33.39421785837477
 20
257.2746378959017
 30
0.0
 10
-33.64150651582294
 20
257.4216918994499
 30
0.0
 10
-33.9576328231165
 20
257.7422453161597
 30
0.0
 10
-34.23849624246672
 20
258.1238560937306
 30
0.0
 10
-34.46082520959719
 20
258.5546024655747
 30
0.0
 10
-34.62179853479381
 20
259.006242829322
 30
0.0
 10
-34.66342114570053
 20
259.3175544002774
 30
0.0
 10
-34.68369349601859
 20
259.4691791869631
 30
0.0
 11
-33.27639657646432
 21
257.2045736667839
 31
0.0
 11
-33.61984687320128
 21
257.4281526824856
 31
0.0
 11
-33.94273308738941
 21
257.7420514292962
 31
0.0
 11
-34.22572194419543
 21
258.1274760596748
 31
0.0
 11
-34.45186995557729
 21
258.5613484420332
 31
0.0
 11
-34.60763568903995
 21
259.0176907352144
 31
0.0
 11
-34.68369349601859
 21
259.4691791869631
 31
0.0
  0
SPLINE
  5
2A2
330
1F
100
AcDbEntity
  8
0
  6
Continuous
 62
     7
100
AcDbSpline
210
0.0
220
0.0
230
1.0
 70
     8
 71
     3
 72
    17
 73
    13
 74
    11
 42
0.000000001
 43
0.0000000001
 44
0.00000001
 40
0.0
 40
0.0
 40
0.0
 40
0.0
 40
0.1518175406777185
 40
0.2957746171979634
 40
0.6143846471577177
 40
0.9270452191709357
 40
1.488495087663235
 40
2.028020737806927
 40
2.463196343146822
 40
2.944852118000142
 40
3.284632114654944
 40
3.657119638637691
 40
3.657119638637691
 40
3.657119638637691
 40
3.657119638637691
 10
-38.41265264653245
 20
274.4315063358495
 30
0.0
 10
-38.37434243183081
 20
274.4645734711286
 30
0.0
 10
-38.29970553260035
 20
274.5289956558395
 30
0.0
 10
-38.14171851136112
 20
274.6593258148081
 30
0.0
 10
-37.93794164887259
 20
274.8183518425527
 30
0.0
 10
-37.61458224047352
 20
275.0498188641325
 30
0.0
 10
-37.21518242668776
 20
275.3009136775555
 30
0.0
 10
-36.75935142210955
 20
275.5356743813548
 30
0.0
 10
-36.30986554632506
 20
275.7205033372327
 30
0.0
 10
-35.9088229399669
 20
275.8435351001641
 30
0.0
 10
-35.51915237044048
 20
275.9276288706199
 30
0.0
 10
-35.28271040721993
 20
275.9511147473788
 30
0.0
 10
-35.15906068360195
 20
275.963396917518
 30
0.0
 11
-38.41265264653245
 21
274.4315063358495
 31
0.0
 11
-38.29734772688738
 21
274.5302653387919
 31
0.0
 11
-38.1863739699898
 21
274.6219630206318
 31
0.0
 11
-37.93505110375718
 21
274.8177924549155
 31
0.0
 11
-37.68075423228692
 21
274.9996982939265
 31
0.0
 11
-37.20492182995011
 21
275.2977074893173
 31
0.0
 11
-36.72483277618193
 21
275.5438830961003
 31
0.0
 11
-36.3220403649601
 21
275.7086134288389
 31
0.0
 11
-35.86150132263691
 21
275.8496668877035
 31
0.0
 11
-35.52892319390531
 21
275.9192530614788
 31
0.0
 11
-35.15906068360195
 21
275.963396917518
 31
0.0
  0
SPLINE
  5
2A3
330
1F
100
AcDbEntity
  8
0
  6
Continuous
 62
     7
100
AcDbSpline
210
0.0
220
0.0
230
1.0
 70
     8
 71
     3
 72
    19
 73
    15
 74
    13
 42
0.000000001
 43
0.0000000001
 44
0.00000001
 40
0.0
 40
0.0
 40
0.0
 40
0.0
 40
0.6662356406693855
 40
1.356149039900488
 40
2.867500064186816
 40
4.43459052613972
 40
6.017231533906639
 40
7.57380747399325
 40
9.06511112198923
 40
10.45838258335905
 40
11.73191415495198
 40
12.88058069562775
 40
13.92194944176817
 40
14.89982126630914
 40
14.89982126630914
 40
14.89982126630914
 40
14.89982126630914
 10
-39.14538286031265
 20
264.8641633673479
 30
0.0
 10
-39.14012995382935
 20
265.0862916876153
 30
0.0
 10
-39.12943744169813
 20
265.5384426826957
 30
0.0
 10
-39.01587530017714
 20
266.4886875168371
 30
0.0
 10
-38.73881904755339
 20
267.7179552720175
 30
0.0
 10
-38.19764862412799
 20
269.1789070208298
 30
0.0
 10
-37.47223237743249
 20
270.5744558388232
 30
0.0
 10
-36.59124906292287
 20
271.8470211841641
 30
0.0
 10
-35.59069172884698
 20
272.9448971541256
 30
0.0
 10
-34.51092075314686
 20
273.8224346188899
 30
0.0
 10
-33.39200743311872
 20
274.446710400635
 30
0.0
 10
-32.28001458696444
 20
274.7796663804731
 30
0.0
 10
-31.19975483276323
 20
274.8310160947559
 30
0.0
 10
-30.56467199042474
 20
274.5902239545416
 30
0.0
 10
-30.25711595982654
 20
274.4736138456155
 30
0.0
 11
-39.14538286031265
 21
264.8641633673479
 31
0.0
 11
-39.11924254453211
 21
265.5298859860915
 31
0.0
 11
-39.04107261430372
 21
266.2153565960291
 31
0.0
 11
-38.71132140986139
 21
267.6902959370862
 31
0.0
 11
-38.16980065461345
 21
269.1608495021026
 31
0.0
 11
-37.43939596682004
 21
270.5648657240033
 31
0.0
 11
-36.55097812730303
 21
271.843005935117
 31
0.0
 11
-35.54209434268463
 21
272.9412500240884
 31
0.0
 11
-34.45538457756719
 21
273.8131830779508
 31
0.0
 11
-33.33677712653363
 21
274.4219523550964
 31
0.0
 11
-32.2335487747661
 21
274.741830493981
 31
0.0
 11
-31.1923265044778
 21
274.7592964603684
 31
0.0
 11
-30.25711595982654
 21
274.4736138456155
 31
0.0
  0
SPLINE
  5
2A4
330
1F
100
AcDbEntity
  8
0
  6
Continuous
 62
     7
100
AcDbSpline
210
0.0
220
0.0
230
1.0
 70
     8
 71
     3
 72
     9
 73
     5
 74
     3
 42
0.000000001
 43
0.0000000001
 44
0.00000001
 40
0.0
 40
0.0
 40
0.0
 40
0.0
 40
1.062970322092823
 40
2.045294762305642
 40
2.045294762305642
 40
2.045294762305642
 40
2.045294762305642
 10
-42.68091676624539
 20
266.6319303203143
 30
0.0
 10
-42.67042422853954
 20
266.2763429043369
 30
0.0
 10
-42.6502351856204
 20
265.5921459310498
 30
0.0
 10
-42.47169973783424
 20
264.9315997269553
 30
0.0
 10
-42.38595182694246
 20
264.6143492805047
 30
0.0
 11
-42.68091676624539
 21
266.6319303203143
 31
0.0
 11
-42.60666919922465
 21
265.5715562325011
 31
0.0
 11
-42.38595182694246
 21
264.6143492805047
 31
0.0
  0
SPLINE
  5
2A5
330
1F
100
AcDbEntity
  8
0
  6
Continuous
 62
     7
100
AcDbSpline
210
0.0
220
0.0
230
1.0
 70
     8
 71
     3
 72
     9
 73
     5
 74
     3
 42
0.000000001
 43
0.0000000001
 44
0.00000001
 40
0.0
 40
0.0
 40
0.0
 40
0.0
 40
0.6160632953587493
 40
1.202218205301086
 40
1.202218205301086
 40
1.202218205301086
 40
1.202218205301086
 10
-41.57414531178205
 20
265.2586304719817
 30
0.0
 10
-41.54673602409084
 20
265.0547730988603
 30
0.0
 10
-41.49324808381984
 20
264.6569551395326
 30
0.0
 10
-41.38034084811537
 20
264.2718039536174
 30
0.0
 10
-41.32529165516263
 20
264.0840191946147
 30
0.0
 11
-41.57414531178205
 21
265.2586304719817
 31
0.0
 11
-41.47631431414028
 21
264.6503845674239
 31
0.0
 11
-41.32529165516263
 21
264.0840191946147
 31
0.0
  0
SPLINE
  5
2A6
330
1F
100
AcDbEntity
  8
0
  6
Continuous
 62
     7
100
AcDbSpline
210
0.0
220
0.0
230
1.0
 70
     8
 71
     3
 72
    11
 73
     7
 74
     5
 42
0.000000001
 43
0.0000000001
 44
0.00000001
 40
0.0
 40
0.0
 40
0.0
 40
0.0
 40
1.135408186657507
 40
2.1672265871932
 40
3.113105864149124
 40
4.009350900817715
 40
4.009350900817715
 40
4.009350900817715
 40
4.009350900817715
 10
-39.09927157762914
 20
264.0211936049053
 30
0.0
 10
-39.03921009093644
 20
263.6460049764036
 30
0.0
 10
-38.92456685662676
 20
262.9298583281677
 30
0.0
 10
-38.50485220557647
 20
261.9716658005149
 30
0.0
 10
-37.92591354032294
 20
261.1848315520862
 30
0.0
 10
-37.40005179289906
 20
260.8583012361704
 30
0.0
 10
-37.14420533052591
 20
260.6994351042168
 30
0.0
 11
-39.09927157762914
 21
264.0211936049053
 31
0.0
 11
-38.8703559391318
 21
262.9091012616435
 31
0.0
 11
-38.45740116827285
 21
261.9635233570306
 31
0.0
 11
-37.87510758940601
 21
261.2181229273307
 31
0.0
 11
-37.14420533052591
 21
260.6994351042168
 31
0.0
  0
SPLINE
  5
2A7
330
1F
100
AcDbEntity
  8
0
  6
Continuous
 62
     7
100
AcDbSpline
210
0.0
220
0.0
230
1.0
 70
     8
 71
     3
 72
    19
 73
    15
 74
    13
 42
0.000000001
 43
0.0000000001
 44
0.00000001
 40
0.0
 40
0.0
 40
0.0
 40
0.0
 40
0.0259841871947226
 40
0.0521756179340648
 40
0.3900013832395167
 40
0.6955462556984944
 40
1.272005448336451
 40
1.850472566755085
 40
2.138371198055114
 40
2.425201116546662
 40
2.719623157004754
 40
2.98528750464019
 40
3.040172303232753
 40
3.094933050342977
 40
3.094933050342977
 40
3.094933050342977
 40
3.094933050342977
 10
-19.83845898038877
 20
262.3755858382739
 30
0.0
 10
-19.84080925235156
 20
262.3672493960497
 30
0.0
 10
-19.84552855531106
 20
262.3505100260821
 30
0.0
 10
-19.88133224376742
 20
262.225537388156
 30
0.0
 10
-19.94778676721361
 20
262.0123857097257
 30
0.0
 10
-20.08437422323099
 20
261.6293216640298
 30
0.0
 10
-20.27247199636425
 20
261.1798501307862
 30
0.0
 10
-20.48844583983652
 20
260.7496756694186
 30
0.0
 10
-20.67849361334373
 20
260.4154699085148
 30
0.0
 10
-20.83038905237147
 20
260.1686931256936
 30
0.0
 10
-20.98684589746515
 20
259.933634536649
 30
0.0
 10
-21.10639568118827
 20
259.7670623169872
 30
0.0
 10
-21.18136132876035
 20
259.6669064375898
 30
0.0
 10
-21.20352131722158
 20
259.6378419783933
 30
0.0
 10
-21.21458878142742
 20
259.6233261947184
 30
0.0
 11
-19.83845898038877
 21
262.3755858382739
 31
0.0
 11
-19.8455273173663
 21
262.3505815067093
 31
0.0
 11
-19.85273698789843
 21
262.3254019178171
 31
0.0
 11
-19.95324736024117
 21
262.0028745307032
 31
0.0
 11
-20.05581961368618
 21
261.7150610469049
 31
0.0
 11
-20.27822567599736
 21
261.1832333087503
 31
0.0
 11
-20.53777766883536
 21
260.6662642847546
 31
0.0
 11
-20.68010645066262
 21
260.4160081308183
 31
0.0
 11
-20.83047395900249
 21
260.1717520962416
 31
0.0
 11
-20.99365387316194
 21
259.926687507422
 31
0.0
 11
-21.14854770512358
 21
259.710850887698
 31
0.0
 11
-21.18145100142557
 21
259.6669223752355
 31
0.0
 11
-21.21458878142742
 21
259.6233261947184
 31
0.0
  0
ARC
  5
2A8
330
1F
100
AcDbEntity
  8
1
  6
Continuous
 62
     7
100
AcDbCircle
 10
-63.32987124627962
 20
154.9555032583139
 30
0.0
 40
0.0490206755352859
100
AcDbArc
 50
119.9816393689312
 51
240.0183606310854
  0
ARC
  5
2A9
330
1F
100
AcDbEntity
  8
1
  6
Continuous
 62
     7
100
AcDbCircle
 10
-58.42791259735012
 20
154.9555032583139
 30
0.0
 40
0.0490206755352857
100
AcDbArc
 50
299.9816393688643
 51
60.01836063111913
  0
ARC
  5
2AA
102
{ACAD_REACTORS
330
2D1
102
}
330
1F
100
AcDbEntity
  8
1
  6
Continuous
 62
     7
100
AcDbCircle
 10
-18.32369931125729
 20
12.83333333333326
 30
0.0
 40
0.1666666666667028
100
AcDbArc
 50
209.9999999999634
 51
330.0000000000195
  0
ARC
  5
2AB
102
{ACAD_REACTORS
330
2D2
102
}
330
1F
100
AcDbEntity
  8
1
  6
Continuous
 62
     7
100
AcDbCircle
 10
-20.65703264459069
 20
10.2700211480327
 30
0.0
 40
0.6666666666666003
100
AcDbArc
 50
180.0000000000104
 51
240.018360631158
  0
ARC
  5
2AC
330
1F
100
AcDbEntity
  8
1
  6
Continuous
 62
     7
100
AcDbCircle
 10
-26.65684751081719
 20
12.5
 30
0.0
 40
0.1666666666665959
100
AcDbArc
 50
119.9816393689121
 51
240.0183606311065
  0
ARC
  5
2AD
330
1F
100
AcDbEntity
  8
1
  6
Continuous
 62
     7
100
AcDbCircle
 10
-9.99055111169739
 20
12.5
 30
0.0
 40
0.1666666666665779
100
AcDbArc
 50
299.9816393688268
 51
60.01836063115454
  0
ARC
  5
2AE
102
{ACAD_REACTORS
330
2D4
102
}
330
1F
100
AcDbEntity
  8
1
  6
Continuous
 62
     7
100
AcDbCircle
 10
-15.65703264459069
 20
14.92250016016737
 30
0.0
 40
0.3333333333333598
100
AcDbArc
 50
60.0183606311539
 51
180.0
  0
ARC
  5
2AF
102
{ACAD_REACTORS
330
2D4
102
}
330
1F
100
AcDbEntity
  8
1
  6
Continuous
 62
     7
100
AcDbCircle
 10
-15.65703264459069
 20
10.07749983983257
 30
0.0
 40
0.3333333333332007
100
AcDbArc
 50
180.0
 51
299.9816393688464
  0
MTEXT
  5
2B1
330
1F
100
AcDbEntity
  8
1
 62
     7
100
AcDbMText
 10
-194.0000000000001
 20
151.4999999999998
 30
0.0
 40
4.0
 41
0.0
 71
     5
 72
     1
  1
Diritti riservati      All rights reserved
  7
CONVERTER_11
 11
0.0
 21
1.0
 31
0.0
 73
     1
 44
1.32052821128451
  0
MTEXT
  5
2B2
330
1F
100
AcDbEntity
  8
1
 62
     7
100
AcDbMText
 10
-187.0
 20
16.26063942075598
 30
0.0
 40
3.0
 41
0.0
 71
     4
 72
     1
  1
Date
  7
CONVERTER_11
 73
     1
 44
1.32052821128451
  0
MTEXT
  5
2B3
330
1F
100
AcDbEntity
  8
1
 62
     7
100
AcDbMText
 10
-176.4
 20
16.26063942075598
 30
0.0
 40
3.0
 41
0.0
 71
     4
 72
     1
  1
30/06/09
  7
CONVERTER_11
 73
     1
 44
1.32052821128451
  0
MTEXT
  5
2B4
330
1F
100
AcDbEntity
  8
1
 62
     7
100
AcDbMText
 10
-187.0
 20
8.75
 30
0.0
 40
3.0
 41
0.0
 71
     4
 72
     1
  1
Sign.
  7
CONVERTER_11
 73
     1
 44
1.32052821128451
  0
MTEXT
  5
2B5
330
1F
100
AcDbEntity
  8
1
 62
     7
100
AcDbMText
 10
-176.4
 20
8.75
 30
0.0
 40
3.0
 41
0.0
 71
     4
 72
     1
  1
L.Zinnanti
  7
CONVERTER_11
 73
     1
 44
1.32052821128451
  0
MTEXT
  5
2B7
330
1F
100
AcDbEntity
  8
1
 62
     7
100
AcDbMText
 10
-152.7236993112573
 20
12.65304352946998
 30
0.0
 40
4.5
 41
0.0
 71
     4
 72
     1
  1
CX 01 BCM\Pmale shielded , crimp, 1P 16A 50V
  7
CONVERTER_12
 73
     1
 44
0.90036014405762
  0
MTEXT
  5
2B8
330
1F
100
AcDbEntity
  8
1
 62
     7
100
AcDbMText
 10
-40.32369931125729
 20
16.26063942075598
 30
0.0
 40
3.0
 41
0.0
 71
     5
 72
     1
  1
Scale
  7
CONVERTER_11
 73
     1
 44
1.32052821128451
  0
MTEXT
  5
2B9
330
1F
100
AcDbEntity
  8
1
 62
     7
100
AcDbMText
 10
-40.32369931125729
 20
10.0606394207561
 30
0.0
 40
4.5
 41
0.0
 71
     5
 72
     1
  1
1:1
  7
CONVERTER_11
 73
     1
 44
1.32052821128451
  0
DIMENSION
  5
2C5
330
1F
100
AcDbEntity
  8
1
100
AcDbDimension
  2
*D1
 10
-139.2466813157328
 20
129.781241945274
 30
0.0
 11
-131.5466813157328
 21
133.431241945274
 31
0.0
 70
    32
  1
ø15,5
 71
     5
 42
-1.0
 53
0.00013888888889
  3
ME10_DIM_10
100
AcDbAlignedDimension
 13
-123.8466813157328
 23
142.9500044408134
 33
0.0
 14
-139.2466813157328
 24
142.9500044408134
 34
0.0
100
AcDbRotatedDimension
  0
DIMENSION
  5
2D0
330
1F
100
AcDbEntity
  8
1
100
AcDbDimension
  2
*D2
 10
-35.7668575675928
 20
189.4500044408134
 30
0.0
 11
-39.4168575675928
 21
166.2000044408134
 31
0.0
 70
    32
  1
<>
 71
     5
 42
-1.0
 53
90.0
  3
ME10_DIM_11
100
AcDbAlignedDimension
 13
-53.1788919218148
 23
142.9500044408134
 33
0.0
 14
-52.68757603385168
 24
189.4500044408134
 34
0.0
 50
90.0
100
AcDbRotatedDimension
  0
HATCH
  5
2D1
330
1F
100
AcDbEntity
  8
1
  6
Continuous
 62
     7
100
AcDbHatch
 10
0.0
 20
0.0
 30
0.0
210
0.0
220
0.0
230
1.0
  2
SOLID
 70
     1
 71
     1
 91
        1
 92
        1
 93
       13
 72
     2
 10
-16.921998857066
 20
15.73121731203457
 40
0.2649662124753114
 50
210.0000000000311
 51
360.0
 73
     0
 72
     1
 10
-16.65703264459069
 20
15.73121731203457
 11
-16.65703264459069
 21
9.308269070601796
 72
     2
 10
-16.99036597792389
 20
9.308269070601796
 40
0.3333333333333997
 50
0.0
 51
180.0
 73
     0
 72
     1
 10
-17.32369931125729
 20
9.308269070601796
 11
-17.32369931125729
 21
14.23205080756878
 72
     1
 10
-17.32369931125729
 20
14.23205080756878
 11
-18.1793617439599
 21
12.75
 72
     2
 10
-18.32369931125729
 20
12.83333333333326
 40
0.1666666666667028
 50
29.99999999998053
 51
150.0000000000366
 73
     0
 72
     1
 10
-18.46803687855478
 20
12.75
 11
-19.32369931125729
 21
14.23205080756878
 72
     1
 10
-19.32369931125729
 20
14.23205080756878
 11
-19.32369931125729
 21
10.84758507263291
 72
     2
 10
-19.65703264459069
 20
10.84758507263291
 40
0.3333333333333997
 50
0.0
 51
180.0
 73
     0
 72
     1
 10
-19.99036597792409
 20
10.84758507263291
 11
-19.99036597792409
 21
15.73121731203457
 72
     2
 10
-19.72539976544869
 20
15.73121731203457
 40
0.2649662124752854
 50
180.0
 51
329.9999999999808
 73
     0
 72
     1
 10
-19.49593229430059
 20
15.86370041827229
 11
-18.32369931125729
 21
13.83333333333326
 72
     1
 10
-18.32369931125729
 20
13.83333333333326
 11
-17.15146632821399
 21
15.86370041827229
 97
       13
330
1F0
330
24E
330
1F1
330
24F
330
1F2
330
1EB
330
2AA
330
1EA
330
1F3
330
250
330
1F4
330
251
330
1F5
 75
     0
 76
     1
 98
        1
 10
0.0
 20
0.0
  0
HATCH
  5
2D2
330
1F
100
AcDbEntity
  8
1
  6
Continuous
 62
     7
100
AcDbHatch
 10
0.0
 20
0.0
 30
0.0
210
0.0
220
0.0
230
1.0
  2
SOLID
 70
     1
 71
     1
 91
        1
 92
        1
 93
        7
 72
     2
 10
-20.99036597792409
 20
14.92250016016737
 40
0.3333333333333997
 50
0.0
 51
180.0
 73
     1
 72
     1
 10
-21.32369931125729
 20
14.92250016016737
 11
-21.32369931125729
 21
10.27002114803258
 72
     2
 10
-20.65703264459069
 20
10.2700211480327
 40
0.6666666666666003
 50
180.0000000000104
 51
240.018360631158
 73
     1
 72
     1
 10
-20.99018094691701
 20
9.692564090666906
 11
-18.8236067957539
 21
8.442617464995806
 72
     2
 10
-18.65703264459069
 20
8.731345993678701
 40
0.3333333333333673
 50
240.0183606311504
 51
420.0183606311537
 73
     1
 72
     1
 10
-18.4904584934275
 20
9.020074522361597
 11
-20.65703264459069
 21
10.2700211480327
 72
     1
 10
-20.65703264459069
 20
10.2700211480327
 11
-20.65703264459069
 21
14.92250016016737
 97
        7
330
252
330
1F6
330
2AB
330
1F9
330
253
330
1F8
330
1F7
 75
     0
 76
     1
 98
        1
 10
0.0
 20
0.0
  0
HATCH
  5
2D3
330
1F
100
AcDbEntity
  8
1
  6
Continuous
 62
     7
100
AcDbHatch
 10
0.0
 20
0.0
 30
0.0
210
0.0
220
0.0
230
1.0
  2
SOLID
 70
     1
 71
     1
 91
        1
 92
        1
 93
        4
 72
     2
 10
-22.32369931125729
 20
14.15326939093666
 40
0.3333333333332007
 50
0.0
 51
180.0
 73
     1
 72
     1
 10
-22.65703264459069
 20
14.15326939093666
 11
-22.65703264459069
 21
10.84673060906317
 72
     2
 10
-22.32369931125729
 20
10.84673060906317
 40
0.3333333333333997
 50
180.0
 51
360.0
 73
     1
 72
     1
 10
-21.99036597792409
 20
10.84673060906317
 11
-21.99036597792409
 21
14.15326939093666
 97
        4
330
254
330
1FB
330
255
330
1FA
 75
     0
 76
     1
 98
        1
 10
0.0
 20
0.0
  0
HATCH
  5
2D4
330
1F
100
AcDbEntity
  8
1
  6
Continuous
 62
     7
100
AcDbHatch
 10
0.0
 20
0.0
 30
0.0
210
0.0
220
0.0
230
1.0
  2
SOLID
 70
     1
 71
     1
 91
        1
 92
        1
 93
       14
 72
     2
 10
-15.65703264459069
 20
14.92250016016737
 40
0.3333333333333598
 50
60.0183606311539
 51
180.0
 73
     1
 72
     1
 10
-15.99036597792389
 20
14.92250016016737
 11
-15.99036597792389
 21
10.07749983983257
 72
     2
 10
-15.65703264459069
 20
10.07749983983257
 40
0.3333333333332007
 50
180.0
 51
299.9816393688464
 73
     1
 72
     1
 10
-15.4904584934275
 20
9.788771311149674
 11
-14.15712516009418
 21
10.55800208038028
 72
     2
 10
-14.32369931125729
 20
10.84673060906317
 40
0.3333333333333121
 50
299.9816393688349
 51
479.9816393688399
 73
     1
 72
     1
 10
-14.4902734624205
 20
11.13545913774618
 11
-15.32369931125729
 21
10.654636532648
 72
     1
 10
-15.32369931125729
 20
10.654636532648
 11
-15.32369931125729
 21
12.16666666666657
 72
     1
 10
-15.32369931125729
 20
12.16666666666657
 11
-14.32369931125729
 21
12.16666666666657
 72
     2
 10
-14.32369931125729
 20
12.5
 40
0.3333333333334298
 50
270.0
 51
450.0
 73
     1
 72
     1
 10
-14.32369931125729
 20
12.83333333333326
 11
-15.32369931125729
 21
12.83333333333326
 72
     1
 10
-15.32369931125729
 20
12.83333333333326
 11
-15.32369931125729
 21
14.345363467352
 72
     1
 10
-15.32369931125729
 20
14.345363467352
 11
-14.4902734624205
 21
13.86454086225376
 72
     2
 10
-14.32369931125729
 20
14.15326939093666
 40
0.333333333333372
 50
240.0183606311508
 51
420.0183606311504
 73
     1
 72
     1
 10
-14.15712516009418
 20
14.44199791961938
 11
-15.4904584934275
 21
15.21122868885027
 97
       14
330
256
330
1FD
330
1FE
330
1FF
330
257
330
200
330
201
330
202
330
258
330
203
330
2AF
330
1E9
330
2AE
330
1FC
 75
     0
 76
     1
 98
        1
 10
0.0
 20
0.0
  0
ENDSEC
  0
SECTION
  2
OBJECTS
  0
DICTIONARY
  5
C
330
0
100
AcDbDictionary
281
     1
  3
ACAD_GROUP
350
D
  3
ACAD_LAYOUT
350
1A
  3
ACAD_MATERIAL
350
3B
  3
ACAD_MLEADERSTYLE
350
2D7
  3
ACAD_MLINESTYLE
350
17
  3
ACAD_PLOTSETTINGS
350
19
  3
ACAD_PLOTSTYLENAME
350
E
  3
ACAD_VISUALSTYLE
350
2A
  3
AcDbVariableDictionary
350
2D5
  0
DICTIONARY
  5
D
102
{ACAD_REACTORS
330
C
102
}
330
C
100
AcDbDictionary
281
     1
  0
DICTIONARY
  5
1A
102
{ACAD_REACTORS
330
C
102
}
330
C
100
AcDbDictionary
281
     1
  3
Layout1
350
1E
  3
Layout2
350
26
  3
Model
350
22
  0
DICTIONARY
  5
3B
102
{ACAD_REACTORS
330
C
102
}
330
C
100
AcDbDictionary
281
     1
  3
ByBlock
350
3D
  3
ByLayer
350
3C
  3
Global
350
3E
  0
DICTIONARY
  5
2D7
102
{ACAD_REACTORS
330
C
102
}
330
C
100
AcDbDictionary
281
     1
  0
DICTIONARY
  5
17
102
{ACAD_REACTORS
330
C
102
}
330
C
100
AcDbDictionary
281
     1
  3
Standard
350
18
  0
DICTIONARY
  5
19
102
{ACAD_REACTORS
330
C
102
}
330
C
100
AcDbDictionary
281
     1
  0
ACDBDICTIONARYWDFLT
  5
E
102
{ACAD_REACTORS
330
C
102
}
330
C
100
AcDbDictionary
281
     1
  3
Normal
350
F
100
AcDbDictionaryWithDefault
340
F
  0
DICTIONARY
  5
2A
102
{ACAD_REACTORS
330
C
102
}
330
C
100
AcDbDictionary
281
     1
  3
2dWireframe
350
2F
  3
3D Hidden
350
31
  3
3dWireframe
350
30
  3
Basic
350
32
  3
Brighten
350
36
  3
ColorChange
350
3A
  3
Conceptual
350
34
  3
Dim
350
35
  3
Facepattern
350
39
  3
Flat
350
2B
  3
FlatWithEdges
350
2C
  3
Gouraud
350
2D
  3
GouraudWithEdges
350
2E
  3
Linepattern
350
38
  3
Realistic
350
33
  3
Thicken
350
37
  0
DICTIONARY
  5
2D5
102
{ACAD_REACTORS
330
C
102
}
330
C
100
AcDbDictionary
281
     1
  3
DIMASSOC
350
2D8
  3
HIDETEXT
350
2D9
  0
LAYOUT
  5
1E
102
{ACAD_REACTORS
330
1A
102
}
330
1A
100
AcDbPlotSettings
  1

  2
none_device
  4

  6

 40
0.0
 41
0.0
 42
0.0
 43
0.0
 44
0.0
 45
0.0
 46
0.0
 47
0.0
 48
0.0
 49
0.0
140
0.0
141
0.0
142
1.0
143
1.0
 70
   688
 72
     0
 73
     0
 74
     5
  7

 75
    16
147
1.0
148
0.0
149
0.0
100
AcDbLayout
  1
Layout1
 70
     1
 71
     1
 10
0.0
 20
0.0
 11
12.0
 21
9.0
 12
0.0
 22
0.0
 32
0.0
 14
1.00000000000000E+20
 24
1.00000000000000E+20
 34
1.00000000000000E+20
 15
-1.00000000000000E+20
 25
-1.00000000000000E+20
 35
-1.00000000000000E+20
146
0.0
 13
0.0
 23
0.0
 33
0.0
 16
1.0
 26
0.0
 36
0.0
 17
0.0
 27
1.0
 37
0.0
 76
     0
330
1B
  0
LAYOUT
  5
26
102
{ACAD_REACTORS
330
1A
102
}
330
1A
100
AcDbPlotSettings
  1

  2
none_device
  4

  6

 40
0.0
 41
0.0
 42
0.0
 43
0.0
 44
0.0
 45
0.0
 46
0.0
 47
0.0
 48
0.0
 49
0.0
140
0.0
141
0.0
142
1.0
143
1.0
 70
   688
 72
     0
 73
     0
 74
     5
  7

 75
    16
147
1.0
148
0.0
149
0.0
100
AcDbLayout
  1
Layout2
 70
     1
 71
     2
 10
0.0
 20
0.0
 11
0.0
 21
0.0
 12
0.0
 22
0.0
 32
0.0
 14
0.0
 24
0.0
 34
0.0
 15
0.0
 25
0.0
 35
0.0
146
0.0
 13
0.0
 23
0.0
 33
0.0
 16
1.0
 26
0.0
 36
0.0
 17
0.0
 27
1.0
 37
0.0
 76
     0
330
23
  0
LAYOUT
  5
22
102
{ACAD_REACTORS
330
1A
102
}
330
1A
100
AcDbPlotSettings
  1

  2
none_device
  4

  6

 40
0.0
 41
0.0
 42
0.0
 43
0.0
 44
0.0
 45
0.0
 46
0.0
 47
0.0
 48
0.0
 49
0.0
140
0.0
141
0.0
142
1.0
143
1.0
 70
  1712
 72
     0
 73
     0
 74
     0
  7

 75
     0
147
1.0
148
0.0
149
0.0
100
AcDbLayout
  1
Model
 70
     1
 71
     0
 10
0.0
 20
0.0
 11
12.0
 21
9.0
 12
0.0
 22
0.0
 32
0.0
 14
-210.0000000000001
 24
0.0
 34
0.0
 15
0.0
 25
297.0000000000001
 35
0.0
146
0.0
 13
0.0
 23
0.0
 33
0.0
 16
1.0
 26
0.0
 36
0.0
 17
0.0
 27
1.0
 37
0.0
 76
     0
330
1F
331
29
  0
MATERIAL
  5
3D
102
{ACAD_REACTORS
330
3B
102
}
102
{ACAD_XDICTIONARY
360
2FC
102
}
330
3B
100
AcDbMaterial
  1
ByBlock
  0
MATERIAL
  5
3C
102
{ACAD_REACTORS
330
3B
102
}
102
{ACAD_XDICTIONARY
360
2FA
102
}
330
3B
100
AcDbMaterial
  1
ByLayer
  0
MATERIAL
  5
3E
102
{ACAD_REACTORS
330
3B
102
}
102
{ACAD_XDICTIONARY
360
2FE
102
}
330
3B
100
AcDbMaterial
  1
Global
  0
MLINESTYLE
  5
18
102
{ACAD_REACTORS
330
17
102
}
330
17
100
AcDbMlineStyle
  2
Standard
 70
     0
  3

 62
   256
 51
90.0
 52
90.0
 71
     2
 49
0.5
 62
   256
  6
BYLAYER
 49
-0.5
 62
   256
  6
BYLAYER
  0
ACDBPLACEHOLDER
  5
F
102
{ACAD_REACTORS
330
E
102
}
330
E
  0
VISUALSTYLE
  5
2F
102
{ACAD_REACTORS
330
2A
102
}
102
{ACAD_XDICTIONARY
360
2E2
102
}
330
2A
100
AcDbVisualStyle
  2
2dWireframe
 70
     4
 71
     0
 72
     2
 73
     0
 90
        0
 40
-0.6
 41
-30.0
 62
     5
 63
     7
 74
     1
 91
        4
 64
     7
 65
   257
 75
     1
175
     1
 42
1.0
 92
        0
 66
   257
 43
1.0
 76
     1
 77
     6
 78
     2
 67
     7
 79
     5
170
     0
171
     0
290
     0
174
     0
 93
        1
 44
0.0
173
     0
291
     0
 45
0.0
1001
ACAD
1000
AcDbSavedByObjectVersion
1070
     0
  0
VISUALSTYLE
  5
31
102
{ACAD_REACTORS
330
2A
102
}
102
{ACAD_XDICTIONARY
360
2E6
102
}
330
2A
100
AcDbVisualStyle
  2
3D Hidden
 70
     6
 71
     1
 72
     2
 73
     2
 90
        0
 40
-0.6
 41
-30.0
 62
     5
 63
     7
 74
     2
 91
        2
 64
     7
 65
   257
 75
     2
175
     1
 42
40.0
 92
        0
 66
   257
 43
1.0
 76
     1
 77
     6
 78
     2
 67
     7
 79
     3
170
     0
171
     0
290
     0
174
     0
 93
        1
 44
0.0
173
     0
291
     0
 45
0.0
1001
ACAD
1000
AcDbSavedByObjectVersion
1070
     0
  0
VISUALSTYLE
  5
30
102
{ACAD_REACTORS
330
2A
102
}
102
{ACAD_XDICTIONARY
360
2E4
102
}
330
2A
100
AcDbVisualStyle
  2
3dWireframe
 70
     5
 71
     0
 72
     2
 73
     0
 90
        0
 40
-0.6
 41
-30.0
 62
     5
 63
     7
 74
     1
 91
        4
 64
     7
 65
   257
 75
     1
175
     1
 42
1.0
 92
        0
 66
   257
 43
1.0
 76
     1
 77
     6
 78
     2
 67
     7
 79
     5
170
     0
171
     0
290
     0
174
     0
 93
        1
 44
0.0
173
     0
291
     0
 45
0.0
1001
ACAD
1000
AcDbSavedByObjectVersion
1070
     0
  0
VISUALSTYLE
  5
32
102
{ACAD_REACTORS
330
2A
102
}
102
{ACAD_XDICTIONARY
360
2E8
102
}
330
2A
100
AcDbVisualStyle
  2
Basic
 70
     7
 71
     1
 72
     0
 73
     1
 90
        0
 40
-0.6
 41
-30.0
 62
     5
 63
     7
 74
     0
 91
        4
 64
     7
 65
   257
 75
     1
175
     1
 42
1.0
 92
        8
 66
     7
 43
1.0
 76
     1
 77
     6
 78
     2
 67
     7
 79
     5
170
     0
171
     0
290
     0
174
     0
 93
        1
 44
0.0
173
     0
291
     1
 45
0.0
1001
ACAD
1000
AcDbSavedByObjectVersion
1070
     0
  0
VISUALSTYLE
  5
36
102
{ACAD_REACTORS
330
2A
102
}
102
{ACAD_XDICTIONARY
360
2F0
102
}
330
2A
100
AcDbVisualStyle
  2
Brighten
 70
    12
 71
     2
 72
     2
 73
     0
 90
        0
 40
-0.6
 41
-30.0
 62
     5
 63
     7
 74
     1
 91
        4
 64
     7
 65
   257
 75
     1
175
     1
 42
1.0
 92
        8
 66
     7
 43
1.0
 76
     1
 77
     6
 78
     2
 67
     7
 79
     5
170
     0
171
     0
290
     0
174
     0
 93
        1
 44
50.0
173
     0
291
     1
 45
0.0
1001
ACAD
1000
AcDbSavedByObjectVersion
1070
     0
  0
VISUALSTYLE
  5
3A
102
{ACAD_REACTORS
330
2A
102
}
102
{ACAD_XDICTIONARY
360
2F8
102
}
330
2A
100
AcDbVisualStyle
  2
ColorChange
 70
    16
 71
     2
 72
     2
 73
     3
 90
        0
 40
-0.6
 41
-30.0
 62
     5
 63
     8
 74
     1
 91
        4
 64
     7
 65
   257
 75
     1
175
     1
 42
1.0
 92
        8
 66
     8
 43
1.0
 76
     1
 77
     6
 78
     2
 67
     7
 79
     5
170
     0
171
     0
290
     0
174
     0
 93
        1
 44
0.0
173
     0
291
     1
 45
0.0
1001
ACAD
1000
AcDbSavedByObjectVersion
1070
     0
  0
VISUALSTYLE
  5
34
102
{ACAD_REACTORS
330
2A
102
}
102
{ACAD_XDICTIONARY
360
2EC
102
}
330
2A
100
AcDbVisualStyle
  2
Conceptual
 70
     9
 71
     3
 72
     2
 73
     0
 90
        0
 40
-0.6
 41
-30.0
 62
     5
 63
     7
 74
     2
 91
        2
 64
     7
 65
   257
 75
     1
175
     1
 42
40.0
 92
        8
 66
     7
 43
1.0
 76
     1
 77
     6
 78
     2
 67
     7
 79
     3
170
     0
171
     0
290
     0
174
     0
 93
        1
 44
0.0
173
     0
291
     0
 45
0.0
1001
ACAD
1000
AcDbSavedByObjectVersion
1070
     0
  0
VISUALSTYLE
  5
35
102
{ACAD_REACTORS
330
2A
102
}
102
{ACAD_XDICTIONARY
360
2EE
102
}
330
2A
100
AcDbVisualStyle
  2
Dim
 70
    11
 71
     2
 72
     2
 73
     0
 90
        0
 40
-0.6
 41
-30.0
 62
     5
 63
     7
 74
     1
 91
        4
 64
     7
 65
   257
 75
     1
175
     1
 42
1.0
 92
        8
 66
     7
 43
1.0
 76
     1
 77
     6
 78
     2
 67
     7
 79
     5
170
     0
171
     0
290
     0
174
     0
 93
        1
 44
-50.0
173
     0
291
     1
 45
0.0
1001
ACAD
1000
AcDbSavedByObjectVersion
1070
     0
  0
VISUALSTYLE
  5
39
102
{ACAD_REACTORS
330
2A
102
}
102
{ACAD_XDICTIONARY
360
2F6
102
}
330
2A
100
AcDbVisualStyle
  2
Facepattern
 70
    15
 71
     2
 72
     2
 73
     0
 90
        0
 40
-0.6
 41
-30.0
 62
     5
 63
     7
 74
     1
 91
        4
 64
     7
 65
   257
 75
     1
175
     1
 42
1.0
 92
        8
 66
     7
 43
1.0
 76
     1
 77
     6
 78
     2
 67
     7
 79
     5
170
     0
171
     0
290
     0
174
     0
 93
        1
 44
0.0
173
     0
291
     1
 45
0.0
1001
ACAD
1000
AcDbSavedByObjectVersion
1070
     0
  0
VISUALSTYLE
  5
2B
102
{ACAD_REACTORS
330
2A
102
}
102
{ACAD_XDICTIONARY
360
2DA
102
}
330
2A
100
AcDbVisualStyle
  2
Flat
 70
     0
 71
     2
 72
     1
 73
     1
 90
        2
 40
-0.6
 41
30.0
 62
     5
 63
     7
 74
     0
 91
        4
 64
     7
 65
   257
 75
     1
175
     1
 42
1.0
 92
        8
 66
     7
 43
1.0
 76
     1
 77
     6
 78
     2
 67
     7
 79
     5
170
     0
171
     0
290
     0
174
     0
 93
       13
 44
0.0
173
     0
291
     1
 45
0.0
1001
ACAD
1000
AcDbSavedByObjectVersion
1070
     0
  0
VISUALSTYLE
  5
2C
102
{ACAD_REACTORS
330
2A
102
}
102
{ACAD_XDICTIONARY
360
2DC
102
}
330
2A
100
AcDbVisualStyle
  2
FlatWithEdges
 70
     1
 71
     2
 72
     1
 73
     1
 90
        2
 40
-0.6
 41
30.0
 62
     5
 63
     7
 74
     1
 91
        4
 64
     7
 65
   257
 75
     1
175
     1
 42
1.0
 92
        0
 66
   257
 43
1.0
 76
     1
 77
     6
 78
     2
 67
     7
 79
     5
170
     0
171
     0
290
     0
174
     0
 93
       13
 44
0.0
173
     0
291
     1
 45
0.0
1001
ACAD
1000
AcDbSavedByObjectVersion
1070
     0
  0
VISUALSTYLE
  5
2D
102
{ACAD_REACTORS
330
2A
102
}
102
{ACAD_XDICTIONARY
360
2DE
102
}
330
2A
100
AcDbVisualStyle
  2
Gouraud
 70
     2
 71
     2
 72
     2
 73
     1
 90
        2
 40
-0.6
 41
30.0
 62
     5
 63
     7
 74
     0
 91
        4
 64
     7
 65
   257
 75
     1
175
     1
 42
1.0
 92
        0
 66
     7
 43
1.0
 76
     1
 77
     6
 78
     2
 67
     7
 79
     5
170
     0
171
     0
290
     0
174
     0
 93
       13
 44
0.0
173
     0
291
     1
 45
0.0
1001
ACAD
1000
AcDbSavedByObjectVersion
1070
     0
  0
VISUALSTYLE
  5
2E
102
{ACAD_REACTORS
330
2A
102
}
102
{ACAD_XDICTIONARY
360
2E0
102
}
330
2A
100
AcDbVisualStyle
  2
GouraudWithEdges
 70
     3
 71
     2
 72
     2
 73
     1
 90
        2
 40
-0.6
 41
30.0
 62
     5
 63
     7
 74
     1
 91
        4
 64
     7
 65
   257
 75
     1
175
     1
 42
1.0
 92
        0
 66
   257
 43
1.0
 76
     1
 77
     6
 78
     2
 67
     7
 79
     5
170
     0
171
     0
290
     0
174
     0
 93
       13
 44
0.0
173
     0
291
     1
 45
0.0
1001
ACAD
1000
AcDbSavedByObjectVersion
1070
     0
  0
VISUALSTYLE
  5
38
102
{ACAD_REACTORS
330
2A
102
}
102
{ACAD_XDICTIONARY
360
2F4
102
}
330
2A
100
AcDbVisualStyle
  2
Linepattern
 70
    14
 71
     2
 72
     2
 73
     0
 90
        0
 40
-0.6
 41
-30.0
 62
     5
 63
     7
 74
     1
 91
        4
 64
     7
 65
   257
 75
     7
175
     7
 42
1.0
 92
        8
 66
     7
 43
1.0
 76
     1
 77
     6
 78
     2
 67
     7
 79
     5
170
     0
171
     0
290
     0
174
     0
 93
        1
 44
0.0
173
     0
291
     1
 45
0.0
1001
ACAD
1000
AcDbSavedByObjectVersion
1070
     0
  0
VISUALSTYLE
  5
33
102
{ACAD_REACTORS
330
2A
102
}
102
{ACAD_XDICTIONARY
360
2EA
102
}
330
2A
100
AcDbVisualStyle
  2
Realistic
 70
     8
 71
     2
 72
     2
 73
     0
 90
        0
 40
-0.6
 41
-30.0
 62
     5
 63
     7
 74
     1
 91
        0
 64
     7
 65
   257
 75
     1
175
     1
 42
1.0
 92
        8
 66
     8
 43
1.0
 76
     1
 77
     6
 78
     2
 67
     7
 79
     5
170
     0
171
     0
290
     0
174
     0
 93
       13
 44
0.0
173
     0
291
     0
 45
0.0
1001
ACAD
1000
AcDbSavedByObjectVersion
1070
     0
  0
VISUALSTYLE
  5
37
102
{ACAD_REACTORS
330
2A
102
}
102
{ACAD_XDICTIONARY
360
2F2
102
}
330
2A
100
AcDbVisualStyle
  2
Thicken
 70
    13
 71
     2
 72
     2
 73
     0
 90
        0
 40
-0.6
 41
-30.0
 62
     5
 63
     7
 74
     1
 91
        4
 64
     7
 65
   257
 75
     1
175
     1
 42
1.0
 92
       12
 66
     7
 43
1.0
 76
     1
 77
     6
 78
     2
 67
     7
 79
     5
170
     0
171
     0
290
     0
174
     0
 93
        1
 44
0.0
173
     0
291
     1
 45
0.0
1001
ACAD
1000
AcDbSavedByObjectVersion
1070
     0
  0
DICTIONARYVAR
  5
2D8
102
{ACAD_REACTORS
330
2D5
102
}
330
2D5
100
DictionaryVariables
280
     0
  1
2
  0
DICTIONARYVAR
  5
2D9
102
{ACAD_REACTORS
330
2D5
102
}
330
2D5
100
DictionaryVariables
280
     0
  1
1
  0
DICTIONARY
  5
2FC
330
3D
100
AcDbDictionary
280
     1
281
     1
  3
ACAD_XREC_ROUNDTRIP
360
2FD
  0
DICTIONARY
  5
2FA
330
3C
100
AcDbDictionary
280
     1
281
     1
  3
ACAD_XREC_ROUNDTRIP
360
2FB
  0
DICTIONARY
  5
2FE
330
3E
100
AcDbDictionary
280
     1
281
     1
  3
ACAD_XREC_ROUNDTRIP
360
2FF
  0
DICTIONARY
  5
2E2
330
2F
100
AcDbDictionary
280
     1
281
     1
  3
ACAD_XREC_ROUNDTRIP
360
2E3
  0
DICTIONARY
  5
2E6
330
31
100
AcDbDictionary
280
     1
281
     1
  3
ACAD_XREC_ROUNDTRIP
360
2E7
  0
DICTIONARY
  5
2E4
330
30
100
AcDbDictionary
280
     1
281
     1
  3
ACAD_XREC_ROUNDTRIP
360
2E5
  0
DICTIONARY
  5
2E8
330
32
100
AcDbDictionary
280
     1
281
     1
  3
ACAD_XREC_ROUNDTRIP
360
2E9
  0
DICTIONARY
  5
2F0
330
36
100
AcDbDictionary
280
     1
281
     1
  3
ACAD_XREC_ROUNDTRIP
360
2F1
  0
DICTIONARY
  5
2F8
330
3A
100
AcDbDictionary
280
     1
281
     1
  3
ACAD_XREC_ROUNDTRIP
360
2F9
  0
DICTIONARY
  5
2EC
330
34
100
AcDbDictionary
280
     1
281
     1
  3
ACAD_XREC_ROUNDTRIP
360
2ED
  0
DICTIONARY
  5
2EE
330
35
100
AcDbDictionary
280
     1
281
     1
  3
ACAD_XREC_ROUNDTRIP
360
2EF
  0
DICTIONARY
  5
2F6
330
39
100
AcDbDictionary
280
     1
281
     1
  3
ACAD_XREC_ROUNDTRIP
360
2F7
  0
DICTIONARY
  5
2DA
330
2B
100
AcDbDictionary
280
     1
281
     1
  3
ACAD_XREC_ROUNDTRIP
360
2DB
  0
DICTIONARY
  5
2DC
330
2C
100
AcDbDictionary
280
     1
281
     1
  3
ACAD_XREC_ROUNDTRIP
360
2DD
  0
DICTIONARY
  5
2DE
330
2D
100
AcDbDictionary
280
     1
281
     1
  3
ACAD_XREC_ROUNDTRIP
360
2DF
  0
DICTIONARY
  5
2E0
330
2E
100
AcDbDictionary
280
     1
281
     1
  3
ACAD_XREC_ROUNDTRIP
360
2E1
  0
DICTIONARY
  5
2F4
330
38
100
AcDbDictionary
280
     1
281
     1
  3
ACAD_XREC_ROUNDTRIP
360
2F5
  0
DICTIONARY
  5
2EA
330
33
100
AcDbDictionary
280
     1
281
     1
  3
ACAD_XREC_ROUNDTRIP
360
2EB
  0
DICTIONARY
  5
2F2
330
37
100
AcDbDictionary
280
     1
281
     1
  3
ACAD_XREC_ROUNDTRIP
360
2F3
  0
XRECORD
  5
2FD
102
{ACAD_REACTORS
330
2FC
102
}
330
2FC
100
AcDbXrecord
280
     1
102
MATERIAL
148
0.0
149
0.0
149
0.0
 93
        0
 94
      127
282
     0
 72
     1
 77
     1
171
     1
175
     1
179
     1
273
     0
  0
XRECORD
  5
2FB
102
{ACAD_REACTORS
330
2FA
102
}
330
2FA
100
AcDbXrecord
280
     1
102
MATERIAL
148
0.0
149
0.0
149
0.0
 93
        0
 94
      127
282
     0
 72
     1
 77
     1
171
     1
175
     1
179
     1
273
     0
  0
XRECORD
  5
2FF
102
{ACAD_REACTORS
330
2FE
102
}
330
2FE
100
AcDbXrecord
280
     1
102
MATERIAL
148
0.0
149
0.0
149
0.0
 93
        0
 94
      127
282
     0
 72
     1
 77
     1
171
     1
175
     1
179
     1
273
     0
  0
XRECORD
  5
2E3
102
{ACAD_REACTORS
330
2E2
102
}
330
2E2
100
AcDbXrecord
280
     1
102
RTVSPropertyOp0
 70
     1
102
RTVSPropertyOp1
 70
     1
102
RTVSPropertyOp2
 70
     1
102
RTVSPropertyOp3
 70
     1
102
RTVSPropertyOp4
 70
     1
102
RTVSPropertyOp5
 70
     1
102
RTVSPropertyOp6
 70
     1
102
RTVSPropertyOp7
 70
     1
102
RTVSPropertyOp8
 70
     1
102
RTVSPropertyOp9
 70
     1
102
RTVSPropertyOp10
 70
     1
102
RTVSPropertyOp11
 70
     1
102
RTVSPropertyOp12
 70
     1
102
RTVSPropertyOp13
 70
     1
102
RTVSPropertyOp14
 70
     1
102
RTVSPropertyOp15
 70
     1
102
RTVSPropertyOp16
 70
     1
102
RTVSPropertyOp17
 70
     1
102
RTVSPropertyOp18
 70
     1
102
RTVSPropertyOp19
 70
     1
102
RTVSPropertyOp20
 70
     1
102
RTVSPropertyOp21
 70
     1
102
RTVSPropertyOp22
 70
     1
102
RTVSPropertyOp23
 70
     1
102
RTVSPropertyOp24
 70
     1
102
RTVSPropertyOp25
 70
     1
102
RTVSPropertyOp26
 70
     1
102
RTVSPropertyOp27
 70
     1
102
RTVSPropertyOp28
 70
     1
102
RTVSPropertyOp29
 70
     1
102
RTVSPropertyOp30
 70
     1
102
RTVSPropertyOp31
 70
     1
102
RTVSPropertyOp32
 70
     1
  0
XRECORD
  5
2E7
102
{ACAD_REACTORS
330
2E6
102
}
330
2E6
100
AcDbXrecord
280
     1
102
RTVSPropertyOp0
 70
     1
102
RTVSPropertyOp1
 70
     1
102
RTVSPropertyOp2
 70
     1
102
RTVSPropertyOp3
 70
     1
102
RTVSPropertyOp4
 70
     1
102
RTVSPropertyOp5
 70
     1
102
RTVSPropertyOp6
 70
     1
102
RTVSPropertyOp7
 70
     1
102
RTVSPropertyOp8
 70
     1
102
RTVSPropertyOp9
 70
     1
102
RTVSPropertyOp10
 70
     1
102
RTVSPropertyOp11
 70
     1
102
RTVSPropertyOp12
 70
     1
102
RTVSPropertyOp13
 70
     1
102
RTVSPropertyOp14
 70
     1
102
RTVSPropertyOp15
 70
     1
102
RTVSPropertyOp16
 70
     1
102
RTVSPropertyOp17
 70
     1
102
RTVSPropertyOp18
 70
     1
102
RTVSPropertyOp19
 70
     1
102
RTVSPropertyOp20
 70
     1
102
RTVSPropertyOp21
 70
     1
102
RTVSPropertyOp22
 70
     1
102
RTVSPropertyOp23
 70
     1
102
RTVSPropertyOp24
 70
     1
102
RTVSPropertyOp25
 70
     1
102
RTVSPropertyOp26
 70
     1
102
RTVSPropertyOp27
 70
     1
102
RTVSPropertyOp28
 70
     1
102
RTVSPropertyOp29
 70
     1
102
RTVSPropertyOp30
 70
     1
102
RTVSPropertyOp31
 70
     1
102
RTVSPropertyOp32
 70
     1
  0
XRECORD
  5
2E5
102
{ACAD_REACTORS
330
2E4
102
}
330
2E4
100
AcDbXrecord
280
     1
102
RTVSPropertyOp0
 70
     1
102
RTVSPropertyOp1
 70
     1
102
RTVSPropertyOp2
 70
     1
102
RTVSPropertyOp3
 70
     1
102
RTVSPropertyOp4
 70
     1
102
RTVSPropertyOp5
 70
     1
102
RTVSPropertyOp6
 70
     1
102
RTVSPropertyOp7
 70
     1
102
RTVSPropertyOp8
 70
     1
102
RTVSPropertyOp9
 70
     1
102
RTVSPropertyOp10
 70
     1
102
RTVSPropertyOp11
 70
     1
102
RTVSPropertyOp12
 70
     1
102
RTVSPropertyOp13
 70
     1
102
RTVSPropertyOp14
 70
     1
102
RTVSPropertyOp15
 70
     1
102
RTVSPropertyOp16
 70
     1
102
RTVSPropertyOp17
 70
     1
102
RTVSPropertyOp18
 70
     1
102
RTVSPropertyOp19
 70
     1
102
RTVSPropertyOp20
 70
     1
102
RTVSPropertyOp21
 70
     1
102
RTVSPropertyOp22
 70
     1
102
RTVSPropertyOp23
 70
     1
102
RTVSPropertyOp24
 70
     1
102
RTVSPropertyOp25
 70
     1
102
RTVSPropertyOp26
 70
     1
102
RTVSPropertyOp27
 70
     1
102
RTVSPropertyOp28
 70
     1
102
RTVSPropertyOp29
 70
     1
102
RTVSPropertyOp30
 70
     1
102
RTVSPropertyOp31
 70
     1
102
RTVSPropertyOp32
 70
     1
  0
XRECORD
  5
2E9
102
{ACAD_REACTORS
330
2E8
102
}
330
2E8
100
AcDbXrecord
280
     1
102
RTVSPropertyOp0
 70
     1
102
RTVSPropertyOp1
 70
     1
102
RTVSPropertyOp2
 70
     1
102
RTVSPropertyOp3
 70
     1
102
RTVSPropertyOp4
 70
     1
102
RTVSPropertyOp5
 70
     1
102
RTVSPropertyOp6
 70
     1
102
RTVSPropertyOp7
 70
     1
102
RTVSPropertyOp8
 70
     1
102
RTVSPropertyOp9
 70
     1
102
RTVSPropertyOp10
 70
     1
102
RTVSPropertyOp11
 70
     1
102
RTVSPropertyOp12
 70
     1
102
RTVSPropertyOp13
 70
     1
102
RTVSPropertyOp14
 70
     1
102
RTVSPropertyOp15
 70
     1
102
RTVSPropertyOp16
 70
     1
102
RTVSPropertyOp17
 70
     1
102
RTVSPropertyOp18
 70
     1
102
RTVSPropertyOp19
 70
     1
102
RTVSPropertyOp20
 70
     1
102
RTVSPropertyOp21
 70
     1
102
RTVSPropertyOp22
 70
     1
102
RTVSPropertyOp23
 70
     1
102
RTVSPropertyOp24
 70
     1
102
RTVSPropertyOp25
 70
     1
102
RTVSPropertyOp26
 70
     1
102
RTVSPropertyOp27
 70
     1
102
RTVSPropertyOp28
 70
     1
102
RTVSPropertyOp29
 70
     1
102
RTVSPropertyOp30
 70
     1
102
RTVSPropertyOp31
 70
     1
102
RTVSPropertyOp32
 70
     1
  0
XRECORD
  5
2F1
102
{ACAD_REACTORS
330
2F0
102
}
330
2F0
100
AcDbXrecord
280
     1
102
RTVSPropertyOp0
 70
     1
102
RTVSPropertyOp1
 70
     1
102
RTVSPropertyOp2
 70
     1
102
RTVSPropertyOp3
 70
     1
102
RTVSPropertyOp4
 70
     1
102
RTVSPropertyOp5
 70
     1
102
RTVSPropertyOp6
 70
     1
102
RTVSPropertyOp7
 70
     1
102
RTVSPropertyOp8
 70
     1
102
RTVSPropertyOp9
 70
     1
102
RTVSPropertyOp10
 70
     1
102
RTVSPropertyOp11
 70
     1
102
RTVSPropertyOp12
 70
     1
102
RTVSPropertyOp13
 70
     1
102
RTVSPropertyOp14
 70
     1
102
RTVSPropertyOp15
 70
     1
102
RTVSPropertyOp16
 70
     1
102
RTVSPropertyOp17
 70
     1
102
RTVSPropertyOp18
 70
     1
102
RTVSPropertyOp19
 70
     1
102
RTVSPropertyOp20
 70
     1
102
RTVSPropertyOp21
 70
     1
102
RTVSPropertyOp22
 70
     1
102
RTVSPropertyOp23
 70
     1
102
RTVSPropertyOp24
 70
     1
102
RTVSPropertyOp25
 70
     1
102
RTVSPropertyOp26
 70
     1
102
RTVSPropertyOp27
 70
     1
102
RTVSPropertyOp28
 70
     1
102
RTVSPropertyOp29
 70
     1
102
RTVSPropertyOp30
 70
     1
102
RTVSPropertyOp31
 70
     1
102
RTVSPropertyOp32
 70
     1
  0
XRECORD
  5
2F9
102
{ACAD_REACTORS
330
2F8
102
}
330
2F8
100
AcDbXrecord
280
     1
102
RTVSPropertyOp0
 70
     1
102
RTVSPropertyOp1
 70
     1
102
RTVSPropertyOp2
 70
     1
102
RTVSPropertyOp3
 70
     1
102
RTVSPropertyOp4
 70
     1
102
RTVSPropertyOp5
 70
     1
102
RTVSPropertyOp6
 70
     1
102
RTVSPropertyOp7
 70
     1
102
RTVSPropertyOp8
 70
     1
102
RTVSPropertyOp9
 70
     1
102
RTVSPropertyOp10
 70
     1
102
RTVSPropertyOp11
 70
     1
102
RTVSPropertyOp12
 70
     1
102
RTVSPropertyOp13
 70
     1
102
RTVSPropertyOp14
 70
     1
102
RTVSPropertyOp15
 70
     1
102
RTVSPropertyOp16
 70
     1
102
RTVSPropertyOp17
 70
     1
102
RTVSPropertyOp18
 70
     1
102
RTVSPropertyOp19
 70
     1
102
RTVSPropertyOp20
 70
     1
102
RTVSPropertyOp21
 70
     1
102
RTVSPropertyOp22
 70
     1
102
RTVSPropertyOp23
 70
     1
102
RTVSPropertyOp24
 70
     1
102
RTVSPropertyOp25
 70
     1
102
RTVSPropertyOp26
 70
     1
102
RTVSPropertyOp27
 70
     1
102
RTVSPropertyOp28
 70
     1
102
RTVSPropertyOp29
 70
     1
102
RTVSPropertyOp30
 70
     1
102
RTVSPropertyOp31
 70
     1
102
RTVSPropertyOp32
 70
     1
  0
XRECORD
  5
2ED
102
{ACAD_REACTORS
330
2EC
102
}
330
2EC
100
AcDbXrecord
280
     1
102
RTVSPropertyOp0
 70
     1
102
RTVSPropertyOp1
 70
     1
102
RTVSPropertyOp2
 70
     1
102
RTVSPropertyOp3
 70
     1
102
RTVSPropertyOp4
 70
     1
102
RTVSPropertyOp5
 70
     1
102
RTVSPropertyOp6
 70
     1
102
RTVSPropertyOp7
 70
     1
102
RTVSPropertyOp8
 70
     1
102
RTVSPropertyOp9
 70
     1
102
RTVSPropertyOp10
 70
     1
102
RTVSPropertyOp11
 70
     1
102
RTVSPropertyOp12
 70
     1
102
RTVSPropertyOp13
 70
     1
102
RTVSPropertyOp14
 70
     1
102
RTVSPropertyOp15
 70
     1
102
RTVSPropertyOp16
 70
     1
102
RTVSPropertyOp17
 70
     1
102
RTVSPropertyOp18
 70
     1
102
RTVSPropertyOp19
 70
     1
102
RTVSPropertyOp20
 70
     1
102
RTVSPropertyOp21
 70
     1
102
RTVSPropertyOp22
 70
     1
102
RTVSPropertyOp23
 70
     1
102
RTVSPropertyOp24
 70
     1
102
RTVSPropertyOp25
 70
     1
102
RTVSPropertyOp26
 70
     1
102
RTVSPropertyOp27
 70
     1
102
RTVSPropertyOp28
 70
     1
102
RTVSPropertyOp29
 70
     1
102
RTVSPropertyOp30
 70
     1
102
RTVSPropertyOp31
 70
     1
102
RTVSPropertyOp32
 70
     1
  0
XRECORD
  5
2EF
102
{ACAD_REACTORS
330
2EE
102
}
330
2EE
100
AcDbXrecord
280
     1
102
RTVSPropertyOp0
 70
     1
102
RTVSPropertyOp1
 70
     1
102
RTVSPropertyOp2
 70
     1
102
RTVSPropertyOp3
 70
     1
102
RTVSPropertyOp4
 70
     1
102
RTVSPropertyOp5
 70
     1
102
RTVSPropertyOp6
 70
     1
102
RTVSPropertyOp7
 70
     1
102
RTVSPropertyOp8
 70
     1
102
RTVSPropertyOp9
 70
     1
102
RTVSPropertyOp10
 70
     1
102
RTVSPropertyOp11
 70
     1
102
RTVSPropertyOp12
 70
     1
102
RTVSPropertyOp13
 70
     1
102
RTVSPropertyOp14
 70
     1
102
RTVSPropertyOp15
 70
     1
102
RTVSPropertyOp16
 70
     1
102
RTVSPropertyOp17
 70
     1
102
RTVSPropertyOp18
 70
     1
102
RTVSPropertyOp19
 70
     1
102
RTVSPropertyOp20
 70
     1
102
RTVSPropertyOp21
 70
     1
102
RTVSPropertyOp22
 70
     1
102
RTVSPropertyOp23
 70
     1
102
RTVSPropertyOp24
 70
     1
102
RTVSPropertyOp25
 70
     1
102
RTVSPropertyOp26
 70
     1
102
RTVSPropertyOp27
 70
     1
102
RTVSPropertyOp28
 70
     1
102
RTVSPropertyOp29
 70
     1
102
RTVSPropertyOp30
 70
     1
102
RTVSPropertyOp31
 70
     1
102
RTVSPropertyOp32
 70
     1
  0
XRECORD
  5
2F7
102
{ACAD_REACTORS
330
2F6
102
}
330
2F6
100
AcDbXrecord
280
     1
102
RTVSPropertyOp0
 70
     1
102
RTVSPropertyOp1
 70
     1
102
RTVSPropertyOp2
 70
     1
102
RTVSPropertyOp3
 70
     1
102
RTVSPropertyOp4
 70
     1
102
RTVSPropertyOp5
 70
     1
102
RTVSPropertyOp6
 70
     1
102
RTVSPropertyOp7
 70
     1
102
RTVSPropertyOp8
 70
     1
102
RTVSPropertyOp9
 70
     1
102
RTVSPropertyOp10
 70
     1
102
RTVSPropertyOp11
 70
     1
102
RTVSPropertyOp12
 70
     1
102
RTVSPropertyOp13
 70
     1
102
RTVSPropertyOp14
 70
     1
102
RTVSPropertyOp15
 70
     1
102
RTVSPropertyOp16
 70
     1
102
RTVSPropertyOp17
 70
     1
102
RTVSPropertyOp18
 70
     1
102
RTVSPropertyOp19
 70
     1
102
RTVSPropertyOp20
 70
     1
102
RTVSPropertyOp21
 70
     1
102
RTVSPropertyOp22
 70
     1
102
RTVSPropertyOp23
 70
     1
102
RTVSPropertyOp24
 70
     1
102
RTVSPropertyOp25
 70
     1
102
RTVSPropertyOp26
 70
     1
102
RTVSPropertyOp27
 70
     1
102
RTVSPropertyOp28
 70
     1
102
RTVSPropertyOp29
 70
     1
102
RTVSPropertyOp30
 70
     1
102
RTVSPropertyOp31
 70
     1
102
RTVSPropertyOp32
 70
     1
  0
XRECORD
  5
2DB
102
{ACAD_REACTORS
330
2DA
102
}
330
2DA
100
AcDbXrecord
280
     1
102
RTVSPropertyOp0
 70
     1
102
RTVSPropertyOp1
 70
     1
102
RTVSPropertyOp2
 70
     1
102
RTVSPropertyOp3
 70
     1
102
RTVSPropertyOp4
 70
     1
102
RTVSPropertyOp5
 70
     1
102
RTVSPropertyOp6
 70
     1
102
RTVSPropertyOp7
 70
     1
102
RTVSPropertyOp8
 70
     1
102
RTVSPropertyOp9
 70
     1
102
RTVSPropertyOp10
 70
     1
102
RTVSPropertyOp11
 70
     1
102
RTVSPropertyOp12
 70
     1
102
RTVSPropertyOp13
 70
     1
102
RTVSPropertyOp14
 70
     1
102
RTVSPropertyOp15
 70
     1
102
RTVSPropertyOp16
 70
     1
102
RTVSPropertyOp17
 70
     1
102
RTVSPropertyOp18
 70
     1
102
RTVSPropertyOp19
 70
     1
102
RTVSPropertyOp20
 70
     1
102
RTVSPropertyOp21
 70
     1
102
RTVSPropertyOp22
 70
     1
102
RTVSPropertyOp23
 70
     1
102
RTVSPropertyOp24
 70
     1
102
RTVSPropertyOp25
 70
     1
102
RTVSPropertyOp26
 70
     1
102
RTVSPropertyOp27
 70
     1
102
RTVSPropertyOp28
 70
     1
102
RTVSPropertyOp29
 70
     1
102
RTVSPropertyOp30
 70
     1
102
RTVSPropertyOp31
 70
     1
102
RTVSPropertyOp32
 70
     1
  0
XRECORD
  5
2DD
102
{ACAD_REACTORS
330
2DC
102
}
330
2DC
100
AcDbXrecord
280
     1
102
RTVSPropertyOp0
 70
     1
102
RTVSPropertyOp1
 70
     1
102
RTVSPropertyOp2
 70
     1
102
RTVSPropertyOp3
 70
     1
102
RTVSPropertyOp4
 70
     1
102
RTVSPropertyOp5
 70
     1
102
RTVSPropertyOp6
 70
     1
102
RTVSPropertyOp7
 70
     1
102
RTVSPropertyOp8
 70
     1
102
RTVSPropertyOp9
 70
     1
102
RTVSPropertyOp10
 70
     1
102
RTVSPropertyOp11
 70
     1
102
RTVSPropertyOp12
 70
     1
102
RTVSPropertyOp13
 70
     1
102
RTVSPropertyOp14
 70
     1
102
RTVSPropertyOp15
 70
     1
102
RTVSPropertyOp16
 70
     1
102
RTVSPropertyOp17
 70
     1
102
RTVSPropertyOp18
 70
     1
102
RTVSPropertyOp19
 70
     1
102
RTVSPropertyOp20
 70
     1
102
RTVSPropertyOp21
 70
     1
102
RTVSPropertyOp22
 70
     1
102
RTVSPropertyOp23
 70
     1
102
RTVSPropertyOp24
 70
     1
102
RTVSPropertyOp25
 70
     1
102
RTVSPropertyOp26
 70
     1
102
RTVSPropertyOp27
 70
     1
102
RTVSPropertyOp28
 70
     1
102
RTVSPropertyOp29
 70
     1
102
RTVSPropertyOp30
 70
     1
102
RTVSPropertyOp31
 70
     1
102
RTVSPropertyOp32
 70
     1
  0
XRECORD
  5
2DF
102
{ACAD_REACTORS
330
2DE
102
}
330
2DE
100
AcDbXrecord
280
     1
102
RTVSPropertyOp0
 70
     1
102
RTVSPropertyOp1
 70
     1
102
RTVSPropertyOp2
 70
     1
102
RTVSPropertyOp3
 70
     1
102
RTVSPropertyOp4
 70
     1
102
RTVSPropertyOp5
 70
     1
102
RTVSPropertyOp6
 70
     1
102
RTVSPropertyOp7
 70
     1
102
RTVSPropertyOp8
 70
     1
102
RTVSPropertyOp9
 70
     1
102
RTVSPropertyOp10
 70
     1
102
RTVSPropertyOp11
 70
     1
102
RTVSPropertyOp12
 70
     1
102
RTVSPropertyOp13
 70
     1
102
RTVSPropertyOp14
 70
     1
102
RTVSPropertyOp15
 70
     1
102
RTVSPropertyOp16
 70
     1
102
RTVSPropertyOp17
 70
     1
102
RTVSPropertyOp18
 70
     1
102
RTVSPropertyOp19
 70
     1
102
RTVSPropertyOp20
 70
     1
102
RTVSPropertyOp21
 70
     1
102
RTVSPropertyOp22
 70
     1
102
RTVSPropertyOp23
 70
     1
102
RTVSPropertyOp24
 70
     1
102
RTVSPropertyOp25
 70
     1
102
RTVSPropertyOp26
 70
     1
102
RTVSPropertyOp27
 70
     1
102
RTVSPropertyOp28
 70
     1
102
RTVSPropertyOp29
 70
     1
102
RTVSPropertyOp30
 70
     1
102
RTVSPropertyOp31
 70
     1
102
RTVSPropertyOp32
 70
     1
  0
XRECORD
  5
2E1
102
{ACAD_REACTORS
330
2E0
102
}
330
2E0
100
AcDbXrecord
280
     1
102
RTVSPropertyOp0
 70
     1
102
RTVSPropertyOp1
 70
     1
102
RTVSPropertyOp2
 70
     1
102
RTVSPropertyOp3
 70
     1
102
RTVSPropertyOp4
 70
     1
102
RTVSPropertyOp5
 70
     1
102
RTVSPropertyOp6
 70
     1
102
RTVSPropertyOp7
 70
     1
102
RTVSPropertyOp8
 70
     1
102
RTVSPropertyOp9
 70
     1
102
RTVSPropertyOp10
 70
     1
102
RTVSPropertyOp11
 70
     1
102
RTVSPropertyOp12
 70
     1
102
RTVSPropertyOp13
 70
     1
102
RTVSPropertyOp14
 70
     1
102
RTVSPropertyOp15
 70
     1
102
RTVSPropertyOp16
 70
     1
102
RTVSPropertyOp17
 70
     1
102
RTVSPropertyOp18
 70
     1
102
RTVSPropertyOp19
 70
     1
102
RTVSPropertyOp20
 70
     1
102
RTVSPropertyOp21
 70
     1
102
RTVSPropertyOp22
 70
     1
102
RTVSPropertyOp23
 70
     1
102
RTVSPropertyOp24
 70
     1
102
RTVSPropertyOp25
 70
     1
102
RTVSPropertyOp26
 70
     1
102
RTVSPropertyOp27
 70
     1
102
RTVSPropertyOp28
 70
     1
102
RTVSPropertyOp29
 70
     1
102
RTVSPropertyOp30
 70
     1
102
RTVSPropertyOp31
 70
     1
102
RTVSPropertyOp32
 70
     1
  0
XRECORD
  5
2F5
102
{ACAD_REACTORS
330
2F4
102
}
330
2F4
100
AcDbXrecord
280
     1
102
RTVSPropertyOp0
 70
     1
102
RTVSPropertyOp1
 70
     1
102
RTVSPropertyOp2
 70
     1
102
RTVSPropertyOp3
 70
     1
102
RTVSPropertyOp4
 70
     1
102
RTVSPropertyOp5
 70
     1
102
RTVSPropertyOp6
 70
     1
102
RTVSPropertyOp7
 70
     1
102
RTVSPropertyOp8
 70
     1
102
RTVSPropertyOp9
 70
     1
102
RTVSPropertyOp10
 70
     1
102
RTVSPropertyOp11
 70
     1
102
RTVSPropertyOp12
 70
     1
102
RTVSPropertyOp13
 70
     1
102
RTVSPropertyOp14
 70
     1
102
RTVSPropertyOp15
 70
     1
102
RTVSPropertyOp16
 70
     1
102
RTVSPropertyOp17
 70
     1
102
RTVSPropertyOp18
 70
     1
102
RTVSPropertyOp19
 70
     1
102
RTVSPropertyOp20
 70
     1
102
RTVSPropertyOp21
 70
     1
102
RTVSPropertyOp22
 70
     1
102
RTVSPropertyOp23
 70
     1
102
RTVSPropertyOp24
 70
     1
102
RTVSPropertyOp25
 70
     1
102
RTVSPropertyOp26
 70
     1
102
RTVSPropertyOp27
 70
     1
102
RTVSPropertyOp28
 70
     1
102
RTVSPropertyOp29
 70
     1
102
RTVSPropertyOp30
 70
     1
102
RTVSPropertyOp31
 70
     1
102
RTVSPropertyOp32
 70
     1
  0
XRECORD
  5
2EB
102
{ACAD_REACTORS
330
2EA
102
}
330
2EA
100
AcDbXrecord
280
     1
102
RTVSPropertyOp0
 70
     1
102
RTVSPropertyOp1
 70
     1
102
RTVSPropertyOp2
 70
     1
102
RTVSPropertyOp3
 70
     1
102
RTVSPropertyOp4
 70
     1
102
RTVSPropertyOp5
 70
     1
102
RTVSPropertyOp6
 70
     1
102
RTVSPropertyOp7
 70
     1
102
RTVSPropertyOp8
 70
     1
102
RTVSPropertyOp9
 70
     1
102
RTVSPropertyOp10
 70
     1
102
RTVSPropertyOp11
 70
     1
102
RTVSPropertyOp12
 70
     1
102
RTVSPropertyOp13
 70
     1
102
RTVSPropertyOp14
 70
     1
102
RTVSPropertyOp15
 70
     1
102
RTVSPropertyOp16
 70
     1
102
RTVSPropertyOp17
 70
     1
102
RTVSPropertyOp18
 70
     1
102
RTVSPropertyOp19
 70
     1
102
RTVSPropertyOp20
 70
     1
102
RTVSPropertyOp21
 70
     1
102
RTVSPropertyOp22
 70
     1
102
RTVSPropertyOp23
 70
     1
102
RTVSPropertyOp24
 70
     1
102
RTVSPropertyOp25
 70
     1
102
RTVSPropertyOp26
 70
     1
102
RTVSPropertyOp27
 70
     1
102
RTVSPropertyOp28
 70
     1
102
RTVSPropertyOp29
 70
     1
102
RTVSPropertyOp30
 70
     1
102
RTVSPropertyOp31
 70
     1
102
RTVSPropertyOp32
 70
     1
  0
XRECORD
  5
2F3
102
{ACAD_REACTORS
330
2F2
102
}
330
2F2
100
AcDbXrecord
280
     1
102
RTVSPropertyOp0
 70
     1
102
RTVSPropertyOp1
 70
     1
102
RTVSPropertyOp2
 70
     1
102
RTVSPropertyOp3
 70
     1
102
RTVSPropertyOp4
 70
     1
102
RTVSPropertyOp5
 70
     1
102
RTVSPropertyOp6
 70
     1
102
RTVSPropertyOp7
 70
     1
102
RTVSPropertyOp8
 70
     1
102
RTVSPropertyOp9
 70
     1
102
RTVSPropertyOp10
 70
     1
102
RTVSPropertyOp11
 70
     1
102
RTVSPropertyOp12
 70
     1
102
RTVSPropertyOp13
 70
     1
102
RTVSPropertyOp14
 70
     1
102
RTVSPropertyOp15
 70
     1
102
RTVSPropertyOp16
 70
     1
102
RTVSPropertyOp17
 70
     1
102
RTVSPropertyOp18
 70
     1
102
RTVSPropertyOp19
 70
     1
102
RTVSPropertyOp20
 70
     1
102
RTVSPropertyOp21
 70
     1
102
RTVSPropertyOp22
 70
     1
102
RTVSPropertyOp23
 70
     1
102
RTVSPropertyOp24
 70
     1
102
RTVSPropertyOp25
 70
     1
102
RTVSPropertyOp26
 70
     1
102
RTVSPropertyOp27
 70
     1
102
RTVSPropertyOp28
 70
     1
102
RTVSPropertyOp29
 70
     1
102
RTVSPropertyOp30
 70
     1
102
RTVSPropertyOp31
 70
     1
102
RTVSPropertyOp32
 70
     1
  0
ENDSEC
  0
EOF
